Subcategories

Ron Carter Trio - Cocktails at the Cotton Club (2013)

Posted By: Designol
Ron Carter Trio - Cocktails at the Cotton Club (2013)

Ron Carter Trio - Cocktails at the Cotton Club (2013)
EAC | FLAC | Image (Cue&Log) ~ 267 Mb (incl 5%) | Scans included | Time: 00::
Straight-Ahead Jazz, Post-Bop | Label: Somethin' Else/Universal | # TOCJ-68099

Legendary jazz bassist Ron Carter has since 2002 led a drum-less trio with the late pianist Mulgrew Miller and guitarist Russell Malone, sometimes referred to as the Golden Striker Trio based on the title of their debut album. Miller left the band in 2012 and was replaced by Donald Vega, a younger and very talented pianist who used to be based in Los Angeles. Cocktails at the Cotton Club is the new trio's first CD, recorded live in concert at The Cotton Club in Tokyo, Japan. Due to the instrumental mix and stylistic choice, the group has an atmosphere of high quality chamber music. The dynamic range is somewhat limited and there's nothing flashy or bombastic about their music, but that is on purpose and that is not the point. The point is in the art of improvisation and interplay. The real excitement starts after the themes are stated, and attentive listeners will be rewarded by the wealth of ideas expressed and the beauty of the three masters' improvisation. Highlights include the stunning interplay between Vega and Carter on "My Funny Valentine" and inspired solo by Carter on "Samba De Orfeu". Recommended!

Ron Carter at Allmusic
Ron Carter Website
Ron Carter at Wiki

Ron Carter Trio:

Ron Carter - bass
Russell Malone - guitar
Donald Vega - piano

Recorded at The Cotton Club, Tokyo on December 14-15, 2012.

Tracklist:

01. Satin Doll (06:24)
02. Mr. Bow-Tie (09:37)
03. My Funny Valentine (11:22)
04. Wave (09:39)
05. Announcement by Ron Carter (00:39)
06. Soft Winds (10:58)
07. Samba de Orfeu (08:28)


Exact Audio Copy V1.1 from 23. June 2015

EAC extraction logfile from 25. July 2016, 21:45

Ron Carter / Cocktails at the Cotton Club

Used drive : ASUS DRW-24B1LT Adapter: 5 ID: 1

Read mode : Secure
Utilize accurate stream : Yes
Defeat audio cache : Yes
Make use of C2 pointers : No

Read offset correction : 6
Overread into Lead-In and Lead-Out : No
Fill up missing offset samples with silence : Yes
Delete leading and trailing silent blocks : No
Null samples used in CRC calculations : Yes
Used interface : Installed external ASPI interface

Used output format : User Defined Encoder
Selected bitrate : 768 kBit/s
Quality : High
Add ID3 tag : No
Command line compressor : C:\Program Files\Exact Audio Copy\Flac\flac.exe
Additional command line options : -8 -V -T "ARTIST=%artist%" -T "TITLE=%title%" -T "ALBUM=%albumtitle%" -T "DATE=%year%" -T "TRACKNUMBER=%tracknr%" -T "TOTALTRACKS=%numtracks%" -T "GENRE=%genre%" -T "ALBUMARTIST=%albumartist%" -T "ALBUM ARTIST=%albumartist%" -T "COMMENT=EAC Secure Mode, Test & Copy, AccurateRip, FLAC -8" %source%


TOC of the extracted CD

Track | Start | Length | Start sector | End sector
––––––––––––––––––––––––––––-
1 | 0:00.00 | 6:24.23 | 0 | 28822
2 | 6:24.23 | 9:37.26 | 28823 | 72123
3 | 16:01.49 | 11:22.33 | 72124 | 123306
4 | 27:24.07 | 9:39.23 | 123307 | 166754
5 | 37:03.30 | 0:39.19 | 166755 | 169698
6 | 37:42.49 | 10:58.55 | 169699 | 219103
7 | 48:41.29 | 8:28.46 | 219104 | 257249


Range status and errors

Selected range

Filename F:\audio\Ron Carter - Cocktails at the Cotton Club.wav

Peak level 98.1 %
Extraction speed 5.7 X
Range quality 100.0 %
Test CRC 2B315E9B
Copy CRC 2B315E9B
Copy OK

No errors occurred


AccurateRip summary

Track 1 accurately ripped (confidence 10) [C8BA439D] (AR v2)
Track 2 accurately ripped (confidence 10) [ACBFD15C] (AR v2)
Track 3 accurately ripped (confidence 10) [524435E9] (AR v2)
Track 4 accurately ripped (confidence 10) [C03E696C] (AR v2)
Track 5 accurately ripped (confidence 10) [BF797BC0] (AR v2)
Track 6 accurately ripped (confidence 10) [57815BCD] (AR v2)
Track 7 accurately ripped (confidence 10) [579E5280] (AR v2)

All tracks accurately ripped

End of status report

–– CUETools DB Plugin V2.1.6

[CTDB TOCID: .vJ0LjcJ.a9EhwjF.9.bgKo.5NA-] found
Submit result: .vJ0LjcJ.a9EhwjF.9.bgKo.5NA- has been confirmed
Track | CTDB Status
1 | (16/16) Accurately ripped
2 | (16/16) Accurately ripped
3 | (16/16) Accurately ripped
4 | (15/16) Accurately ripped, or (1/16) differs in 457 samples @00:45:12,00:45:70,00:46:10,00:46:68,00:47:37,00:51:00,00:54:39,00:57:19,00:59:30-00:59:31,00:59:45,01:02:40-01:02:41,01:02:54-01:02:55,01:03:38,01:03:53,01:03:67,01:04:08,01:04:22,01:04:36-01:04:37,01:04:51,01:04:66-01:04:67,01:05:35,01:05:64-01:05:65,01:06:04-01:06:05,01:06:48,01:06:62-01:06:63,01:07:32,01:07:46-01:07:47,01:07:61,01:08:01,01:08:15-01:08:16,01:08:45,01:08:59-01:08:60,01:09:28-01:09:29,01:09:43-01:09:44,01:09:58,01:10:27,01:10:42,01:10:56-01:10:57,01:11:55,01:11:69-01:11:70,01:12:09-01:12:10,01:12:24,01:12:53-01:12:54,01:12:68,01:13:37-01:13:38,01:13:66-01:13:67,01:14:06-01:14:07,01:15:49,01:17:31,01:19:43,01:20:12,01:21:11,01:21:25-01:21:26,01:21:40-01:21:41
5 | (16/16) Accurately ripped
6 | (16/16) Accurately ripped
7 | (16/16) Accurately ripped


==== Log checksum 0B18F026C580FCB3C2076D997E723F0193B3FD14FC34468B626E87B93E912CEF ====

foobar2000 1.2 / Dynamic Range Meter 1.1.1
log date: 2016-07-26 18:30:36

––––––––––––––––––––––––––––––––––––––––
Analyzed: Ron Carter / Cocktails at the Cotton Club
––––––––––––––––––––––––––––––––––––––––

DR Peak RMS Duration Track
––––––––––––––––––––––––––––––––––––––––
DR12 -0.24 dB -16.40 dB 6:24 01-Satin Doll
DR12 -0.17 dB -15.93 dB 9:37 02-Mr. Bow-Tie
DR14 -0.33 dB -19.65 dB 11:22 03-My Funny Valentine
DR12 -0.16 dB -15.14 dB 9:39 04-Wave
DR14 -8.78 dB -26.98 dB 0:39 05-Announcement by Ron Carter
DR11 -0.30 dB -14.35 dB 10:59 06-Soft Winds
DR11 -2.08 dB -17.17 dB 8:29 07-Samba de Orfeu
––––––––––––––––––––––––––––––––––––––––

Number of tracks: 7
Official DR value: DR12

Samplerate: 44100 Hz
Channels: 2
Bits per sample: 16
Bitrate: 516 kbps
Codec: FLAC
================================================================================

Ron Carter Trio - Cocktails at the Cotton Club (2013)

Ron Carter Trio - Cocktails at the Cotton Club (2013)

All thanks to original releaser - fiks22

More interesting music in My Blog

FileJoker:

RnCrtrCotton13.flac.rar

Password: designol