Tags
Language
Tags

Ronnie Atkins - 4 More Shots: The Acoustics (2021) [CD & DVD, Japanese Ed.]

Posted By: v3122
Ronnie Atkins - 4 More Shots: The Acoustics (2021) [CD & DVD, Japanese Ed.]

Ronnie Atkins - 4 More Shots: The Acoustics (2021)
EAC | Flac(Image) + Cue + Log & MP3 CBR 320Kbps
WarD Records, GQCS-91089~0 | ~ 154 or 48 Mb | Artwork(jpg) -> 92 Mb
DVD-5: NTSC 16:9 (720x480) VBR | LinearPCM, 2 ch
Melodic Hard Rock

Legendary Pretty Maids frontman Ronnie Atkins was diagnosed with cancer in 2019 and after some positive signals, cancer returned in October 2020. But Atkins is a fighter and doesn’t give up easily. The 2021 longplayer ‘One Shot’ with its stellar songs is a clear indication of the singer still being connected to his passion and big love – music.

A few months later, the Danish singer has a new EP in the starting blocks. ‘4 More Shots’ is an acoustic release that features five songs of which ‘Carry Me Over’ is in many aspects the most important one. Atkins wrote this tune right after having been told that cancer returned. It was a dramatic message and the singer hit rock bottom. In this hopeless and frustrating period, Atkins wrote ‘Carry Me Over’, which is an emotionally touching song. This song is certainly a highlight in Atkins’ rich musical history, although a very melancholic one.

Next to ‘Carry Me Over’, four more songs have been recorded for ‘4 More Shots’. ‘When Dreams are Not Enough’, ‘Picture Yourself’ and ‘Real’ are presented in an acoustic version which brings Atkins’ voice to forefront as well as there is a new spirit with each of the three songs.

Last but not least there is with ‘One Shot’ an orchestra version of the title track from the latest longplayer on this release too.

‘4 More Shots’ is an emotional record that carries much more weight than solely music. It is a musical offer that includes a lot of emotions and feel. It’s an emotional roller coaster that expresses a lot of what the Danish singer goes through, emotionally and physical in his battle against cancer. Stay strong Ronnie Atkins.

~ markusheavymusicblog.org
Ronnie Atkins - 4 More Shots: The Acoustics (2021):

Ronnie Atkins - 4 More Shots: The Acoustics (2021) [CD & DVD, Japanese Ed.]

Tracklist CD:

1. Carry Me Over
2. When Dreams Are Not Enough (Acoustic version)
3. Picture Yourself (Acoustic version)
4. Real (Acoustic version)
5. One Shot (Orchestral version) (Bonus track)

Exact Audio Copy V1.6 from 23. October 2020

EAC extraction logfile from 19. October 2021, 9:34

Ronnie Atkins / 4 More Shots (The Acoustics)

Used drive : ASUS BC-12B1ST Adapter: 1 ID: 3

Read mode : Secure
Utilize accurate stream : Yes
Defeat audio cache : Yes
Make use of C2 pointers : No

Read offset correction : 702
Overread into Lead-In and Lead-Out : No
Fill up missing offset samples with silence : Yes
Delete leading and trailing silent blocks : No
Null samples used in CRC calculations : Yes
Used interface : Native Win32 interface for Win NT & 2000

Used output format : User Defined Encoder
Selected bitrate : 1024 kBit/s
Quality : High
Add ID3 tag : No
Command line compressor : C:\Program Files (x86)\Exact Audio Copy\Flac\flac.exe
Additional command line options : -V -8 -T "Genre=%genre%" -T "Artist=%artist%" -T "Title=%title%" -T "Album=%albumtitle%" -T "Date=%year%" -T "Tracknumber=%tracknr%" -T "Comment=%comment%" %source%


TOC of the extracted CD

Track | Start | Length | Start sector | End sector
––––––––––––––––––––––––––––-
1 | 0:00.00 | 3:24.00 | 0 | 15299
2 | 3:24.00 | 4:00.40 | 15300 | 33339
3 | 7:24.40 | 3:42.64 | 33340 | 50053
4 | 11:07.29 | 4:14.15 | 50054 | 69118
5 | 15:21.44 | 5:26.50 | 69119 | 93618


Range status and errors

Selected range

Filename F:\Ginger Devil\Ronnie Atkins - 4 More Shots (The Acoustics) (EP)\Ronnie Atkins - 4 More Shots (The Acoustics).wav

Peak level 87.6 %
Extraction speed 5.2 X
Range quality 100.0 %
Test CRC 9BCE8134
Copy CRC 9BCE8134
Copy OK

No errors occurred


AccurateRip summary

Track 1 not present in database
Track 2 not present in database
Track 3 not present in database
Track 4 not present in database
Track 5 not present in database

None of the tracks are present in the AccurateRip database

End of status report

–– CUETools DB Plugin V2.1.6

[CTDB TOCID: 1iUpzqRoIOBlWa0DafjzFKkKmKs-] found
Submit result: 1iUpzqRoIOBlWa0DafjzFKkKmKs- has been confirmed
Track | CTDB Status
1 | (2/2) Accurately ripped
2 | (2/2) Accurately ripped
3 | (2/2) Accurately ripped
4 | (2/2) Accurately ripped
5 | (2/2) Accurately ripped


==== Log checksum E98F0474369AFD019664284315517233CEE89284ACFAE8AA0828A885A2B293A1 ====


[CUETools log; Date: 21.10.2021 14:54:27; Version: 2.1.4]
[AccurateRip ID: 0003fd38-0012e482-3b04e005] disk not present in database.

Track Peak [ CRC32 ] [W/O NULL] [ LOG ]
– 87,6 [9BCE8134] [8803445C] CRC32
01 86,8 [D77D462F] [CD248707]
02 86,5 [45B9E724] [51763802]
03 86,7 [1B396E5B] [55FEA956]
04 86,8 [267F3053] [E614CA79]
05 87,6 [5DBA4B3B] [1D55E9DE]


Ronnie Atkins - 4 More Shots: The Acoustics (2021) [CD & DVD, Japanese Ed.]

Tracklist DVD:

1. Real (Official video)
2. One Shot (Official video)
3. Picture Yourself (Official video)
4. Frequency Of Love (Official video)
5. Picture Yourself (Acoustic) (Official video)
6. One Shot an Interview with Ronnie

Title: RONNIE ATKINS_BONUS DVD (2021)
Size: 1.60 Gb ( 1 679 962,00 KBytes ) - DVD-5
Enabled regions: 1, 2, 3, 4, 5, 6, 7, 8

VTS_01 :
Play Length: 00:22:31
Video: NTSC 16:9 (720x480) VBR, Auto Letterboxed
Audio:
English (LinearPCM, 2 ch)

* Menus Information *

VIDEO_TS Menu
Video:
NTSC 16:9 (720x480) VBR
Auto Letterboxed
Audio:
Not specified (Dolby AC3, 2 ch)
Japanese Language Unit :
Title Menu

VTS_01 Menu
Video:
NTSC 16:9 (720x480) VBR
Auto Letterboxed
Japanese Language Unit :
Root Menu
Chapter (PTT) Menu

Ronnie Atkins - 4 More Shots: The Acoustics (2021) [CD & 			  			 	   			 	  		  		  		  		  		  		  		  		   			 	   		 	    		 	    	 			   		   	  			  	  		  	   	 			   		  	   		 	 	  	 			   		   	  		   	  		  					 DVD, Japanese Ed.]

Ronnie Atkins - 4 More Shots: The Acoustics (2021) [CD & DVD, Japanese Ed.]

Ronnie Atkins - 4 More Shots: The Acoustics (2021) [CD & DVD, Japanese Ed.]

All thanks go to the original releaser

Ronnie Atkins in my Blog

Download Ronnie Atkins - 4 More Shots: The Acoustics (2021):