Tags
Language
Tags
February 2023
Su Mo Tu We Th Fr Sa
29 30 31 1 2 3 4
5 6 7 8 9 10 11
12 13 14 15 16 17 18
19 20 21 22 23 24 25
26 27 28 1 2 3 4

Ronnie Earl & The Broadcasters - Father's Day (2015) PROPER

Posted By: popsakov
Ronnie Earl & The Broadcasters - Father's Day (2015) PROPER

Ronnie Earl & The Broadcasters - Father's Day (2015)
EAC Rip | FLAC (Img) + Cue + Log ~ 534 Mb | MP3 CBR320 ~ 190 Mb
Full Scans ~ 60 Mb | RAR 5% Recovery
Modern Electric Blues | Stony Plain Records #SPCD 1385 | NL

Blues guitarist Ronnie Earl has been making records since the end of the '70s, and he has a long legacy of fine picking to live up to, but it's not hard to wonder how much the man still has to say musically in a career that's spanned five decades. Released in 2015, Father's Day shows that Earl is not only still a master of the six-string, he still has a few new tricks up his sleeve. Father's Day gets its title from a song dealing with Earl's long estrangement from his father and their belated reconciliation, and it's a personal piece that gives Earl plenty of room to stretch out on spare, jazzy figures while the lyrics weigh the emotional hardships that come with family strife. Between the title cut and his two other originals on the album, "Higher Love" and "Follow Your Heart," Earl seems to be in a contemplative mood, pondering the nature of the heart and soul, and it suits him well, influencing his choice of covers like Bobby "Blue" Bland's "I'll Take Care of You" and Rev. Thomas A. Dorsey's famed spiritual "Precious Lord." Father's Day boasts a richer sound than Earl's last several albums, with a horn section bringing muscle to several cuts, Dave Limina's Hammond B-3 adding some welcome texture, and vocalists Diane Blue and Michael Ledbetter belting it out with plenty of soul power. Of course, Ronnie Earl himself is the headliner on Father's Day, and his guitar playing is what fans come to hear, and on that score this finds his chops and his imagination are both doing well indeed. While Earl's technique is excellent as he shows off his killer tone, splendid string bends, and bold flurries of notes, he also has the taste to hold back rather than drowning the songs in excess soloing, and once again shows off a jazzy sensibility for making sense of the space around the notes rather than randomly filling every nook and cranny. Father's Day is more conceptually bold and contemplative than many of Ronnie Earl's previous albums, and musically the work should satisfy blues fans of all stripes while also attracting more thoughtful listeners brought in by this album's clever, philosophical vantage point.
~ Mark Deming, All Music

***************

Ronnie Earl & The Broadcasters - Father's Day (2015) PROPER

Track List:

01. It Takes Time [5:00]
02. Higher Love [4:28]
03. Right Place Wrong Time [7:46]
04. What Have I Done Wrong [4:47]
05. Giving Up [6:09]
06. Every Night About This Time [4:37]
07. Father's Day [8:13]
08. I Need You So Bad [4:39]
09. I'll Take Care Of You [9:05]
10. Follow Your Heart [4:08]
11. Moanin' [6:24]
12. All Your Love [7:20]
13. Precious Lord [6:33]

Personnel:
Bass - Jim Mouradian
Drums - Lorne Entress
Guitar - Ronnie Earl
Piano, Organ (Hammond B3) - Dave Limina
Guest (Baritone Saxophone) - Scott Shetler
Guest (Guitar) - Larry Lusignan, Nicholas Tabarias, Tim O'Connor
Guest (Tenor Saxophone) - Mario Perrett
Guest (Vocals) - Diane Blue, Michael Ledbetter

Exact Audio Copy V1.0 beta 3 from 29. August 2011

EAC extraction logfile from 16. October 2018, 22:45

Ronnie Earl & The Broadcasters / Father's Day

Used drive : PLEXTOR DVDR PX-740A Adapter: 0 ID: 0

Read mode : Secure
Utilize accurate stream : Yes
Defeat audio cache : Yes
Make use of C2 pointers : No

Read offset correction : 618
Overread into Lead-In and Lead-Out : No
Fill up missing offset samples with silence : Yes
Delete leading and trailing silent blocks : No
Null samples used in CRC calculations : Yes
Used interface : Native Win32 interface for Win NT & 2000

Used output format : Internal WAV Routines
Sample format : 44.100 Hz; 16 Bit; Stereo


TOC of the extracted CD

Track | Start | Length | Start sector | End sector
––––––––––––––––––––––––––––-
1 | 0:00.00 | 4:59.67 | 0 | 22491
2 | 4:59.67 | 4:27.52 | 22492 | 42568
3 | 9:27.44 | 7:46.08 | 42569 | 77526
4 | 17:13.52 | 4:46.71 | 77527 | 99047
5 | 22:00.48 | 6:09.35 | 99048 | 126757
6 | 28:10.08 | 4:37.22 | 126758 | 147554
7 | 32:47.30 | 8:12.49 | 147555 | 184503
8 | 41:00.04 | 4:39.19 | 184504 | 205447
9 | 45:39.23 | 9:05.33 | 205448 | 246355
10 | 54:44.56 | 4:08.17 | 246356 | 264972
11 | 58:52.73 | 6:23.45 | 264973 | 293742
12 | 65:16.43 | 7:19.49 | 293743 | 326716
13 | 72:36.17 | 6:32.70 | 326717 | 356186


Range status and errors

Selected range

Filename C:\MUSIC\CD Rips_J\Ronnie Fathers Day\Ronnie Earl & The Broadcasters - Father's Day.wav

Peak level 100.0 %
Extraction speed 10.2 X
Range quality 100.0 %
Test CRC 2F6659FD
Copy CRC 2F6659FD
Copy OK

No errors occurred


AccurateRip summary

Track 1 accurately ripped (confidence 29) [EB0BC984] (AR v2)
Track 2 accurately ripped (confidence 29) [C26E525E] (AR v2)
Track 3 accurately ripped (confidence 29) [AEE89E75] (AR v2)
Track 4 accurately ripped (confidence 29) [A1202DA1] (AR v2)
Track 5 accurately ripped (confidence 29) [3FDBB04F] (AR v2)
Track 6 accurately ripped (confidence 28) [008650DA] (AR v2)
Track 7 accurately ripped (confidence 28) [6C127FB8] (AR v2)
Track 8 accurately ripped (confidence 28) [9D56BBAD] (AR v2)
Track 9 accurately ripped (confidence 28) [F01979F9] (AR v2)
Track 10 accurately ripped (confidence 28) [FBB216A3] (AR v2)
Track 11 accurately ripped (confidence 28) [8FCF3B24] (AR v2)
Track 12 accurately ripped (confidence 28) [1C6BA2EE] (AR v2)
Track 13 accurately ripped (confidence 28) [FE7D9052] (AR v2)

All tracks accurately ripped

End of status report

==== Log checksum 782E39E4624826FF93FE0B8F623B7ACE762678A3B1F611DD36990958AF34E8D8 ====

[CUETools log; Date: 18.10.2018 17:44:18; Version: 2.1.6]
[CTDB TOCID: 7Y9D5dtc99eKUbbCB5nip82n2IY-] found.
Track | CTDB Status
1 | (48/48) Accurately ripped
2 | (48/48) Accurately ripped
3 | (48/48) Accurately ripped
4 | (48/48) Accurately ripped
5 | (48/48) Accurately ripped
6 | (48/48) Accurately ripped
7 | (48/48) Accurately ripped
8 | (48/48) Accurately ripped
9 | (48/48) Accurately ripped
10 | (48/48) Accurately ripped
11 | (48/48) Accurately ripped
12 | (48/48) Accurately ripped
13 | (48/48) Accurately ripped
[AccurateRip ID: 00248715-0171c6b7-bd128d0d] found.
Track [ CRC | V2 ] Status
01 [35608a56|eb0bc984] (00+29/29) Accurately ripped
02 [fa347c1a|c26e525e] (00+29/29) Accurately ripped
03 [3175f2ae|aee89e75] (00+29/29) Accurately ripped
04 [3f40013a|a1202da1] (00+29/29) Accurately ripped
05 [e3ff6962|3fdbb04f] (00+29/29) Accurately ripped
06 [ee842be3|008650da] (00+28/28) Accurately ripped
07 [9fc912ce|6c127fb8] (00+28/28) Accurately ripped
08 [9e83a7f7|9d56bbad] (00+28/28) Accurately ripped
09 [68337cf1|f01979f9] (00+28/28) Accurately ripped
10 [0917beb5|fbb216a3] (00+28/28) Accurately ripped
11 [7c3ba021|8fcf3b24] (00+28/28) Accurately ripped
12 [58367e33|1c6ba2ee] (00+28/28) Accurately ripped
13 [76633d2a|fe7d9052] (00+28/28) Accurately ripped

Track Peak [ CRC32 ] [W/O NULL] [ LOG ]
– 100,0 [2F6659FD] [2430D038] CRC32
01 97,6 [AFFBBF3F] [522EC164]
02 100,0 [0F90E0FA] [A6595E94]
03 100,0 [2F71AB3E] [EA45DE11]
04 96,9 [BCA8D09C] [9B3B567F]
05 97,0 [47400676] [8573707A]
06 96,2 [F9EC8154] [1A3551BF]
07 94,0 [E6CA07F8] [68B98786]
08 100,0 [1F26456B] [0D1C18EF]
09 94,9 [B704A1D5] [2B8726FA]
10 100,0 [568B7A56] [4A75B7DE]
11 98,1 [DDD93ECF] [EF21E318]
12 97,4 [F60DE813] [FD5D7EE5]
13 98,0 [B5E285E6] [90160A2E]

Ronnie Earl & The Broadcasters - Father's Day (2015) PROPER

All thanks go to Juergen

>>> Ronnie Earl in my Blog <<<

Download from icerbox.com: