Subcategories

Ronnie Laws - Mr. Nice Guy (1983) [2004, Remastered Reissue]

Posted By: BlondStyle
Ronnie Laws - Mr. Nice Guy (1983) [2004, Remastered Reissue]

Ronnie Laws - Mr. Nice Guy (1983) [2004, Remastered Reissue]
R&B, Funk/Soul, Jazz-Funk | EAC Rip | FLAC, Tracks+CUE + LOG + Full Artwork-200dpi (TIF) | 36:09 Min | 248,31 Mb
Label: EMI Records (EU) / Capitol Records (USA) | Released: 2004, August, 23
Ronnie Laws - Mr. Nice Guy (1983) [2004, Remastered Reissue]

Saxophonist/master musician, singer, songwriter and producer first began making an impact as a soloist with the 1975 release of his album, By the start of the ‘80s, the -born member of the musically prolific family was topping the U.S. jazz album charts and building a solid audience among R&B fans on both sides of the . A U.S. Top 10 jazz and Top 30 R&B best-seller, focused on ’s vocals as much as it did his prowess as an instrumentalist: the album contained the Top 40 R&B hit, (a favourite among UK rare groove lovers), the synth-driven title track and a hip cover of ’s .

Ronnie Laws - Mr. Nice Guy (1983) [2004, Remastered Reissue]


Ronnie Laws - Mr. Nice Guy (1983) [2004, Remastered Reissue]


Release of the album: 1983 [LP Capitol Records, Cat.# [url="http://www.discogs.com/Ronnie-Laws-Mr-Nice-Guy/release/1260689"]ST 12261, USA]
Release of this CD: 2004, August, 23 [CD EMI Records (EU), Cat.# [url="http://www.discogs.com/Ronnie-Laws-Mr-Nice-Guy/release/6119767"]072435787742 / UPC: 724357877428]
Note: High Resolution 24-bit / 96-kHz digital remastering
℗ & © Digital Remaster 2004. The Copyright in this sound recording is owned by Capitol Records, Inc. (Original recording 1983)
Marketed and distributed by EMI
Printed in the EU


Art Direction – Bill Burks
Contractor – Larry Dunn, Leon Johnson, Roland Bautista, William Jeffrey
Design [Art, Design] – Mac James
Engineer – Gerry Brown
Engineer [Assistant] – Artie Farkas, Fred Howard, Gene Wooley, Mike Brown, Shinichi Katayama
Mixed By – Gerry Brown
Photography By – Bobby Holland
Producer – Ronnie Laws
Reissue Producer – Gilles Pétard, Gérard Woog

Backing Vocals – Arnold McCuller (tracks: 8), Brenda Gooch (tracks: 8), Debra Laws (tracks: 4), Gwenche Machu (tracks: 9), John Lehman (tracks: 8), Marlena Jeter (tracks: 9), Maxi Anderson (tracks: 9), Myrna Matthews (tracks: 8), Ronnie Laws (tracks: 1, 4)


Tracklist:

01. "Can't Save Tomorrow" (04:11)
(Ronnie Laws)
02. "Mr. Nice Guy" (03:44)
(Ronnie Laws)
03. "In The Groove" (03:34)
(Greg Mathieson, Trevor Veitch)
04. "Third Hour" (04:58)
(Ronnie Laws)
05. "You" (04:08)
(Jackie English, Leon Johnson)
06. "Big Stars" (04:23)
(Ronnie Laws)
07. "Rolling" (03:55)
(Ronnie Laws)
08. "What Does It Take (To Win Your Love)" (03:13)
(Junior Walker)
09. "Off And On Again" (04:05)
(Ronnie Laws)

Exact Audio Copy V1.0 beta 3 from 29. August 2011

EAC extraction logfile from 19. June 2014, 0:23

Ronnie Laws / Mr. Nice Guy

Used drive : PIONEER BD-ROM BDCTD03RS Adapter: 3 ID: 0

Read mode : Secure
Utilize accurate stream : Yes
Defeat audio cache : Yes
Make use of C2 pointers : No

Read offset correction : 667
Overread into Lead-In and Lead-Out : No
Fill up missing offset samples with silence : Yes
Delete leading and trailing silent blocks : No
Null samples used in CRC calculations : Yes
Used interface : Native Win32 interface for Win NT & 2000
Gap handling : Appended to previous track

Used output format : User Defined Encoder
Selected bitrate : 1024 kBit/s
Quality : High
Add ID3 tag : No
Command line compressor : C:\Program Files\FLAC\flac.exe
Additional command line options : -8 -V -T "ARTIST=%artist%" -T "TITLE=%title%" -T "ALBUM=%albumtitle%" -T "DATE=%year%" -T "TRACKNUMBER=%tracknr%" -T "GENRE=%genre%" -T "PERFORMER=%albuminterpret%" -T "COMPOSER=%composer%" %haslyrics%–tag-from-file=LYRICS="%lyricsfile%"%haslyrics% -T "ALBUMARTIST=%albumartist%" -T "DISCNUMBER=%cdnumber%" -T "TOTALDISCS=%totalcds%" -T "TOTALTRACKS=%numtracks%" -T "COMMENT=%comment%" %source% -o %dest%


TOC of the extracted CD

Track | Start | Length | Start sector | End sector
––––––––––––––––––––––––––––-
1 | 0:00.36 | 4:10.52 | 36 | 18837
2 | 4:11.13 | 3:44.27 | 18838 | 35664
3 | 7:55.40 | 3:33.61 | 35665 | 51700
4 | 11:29.26 | 4:57.39 | 51701 | 74014
5 | 16:26.65 | 4:07.39 | 74015 | 92578
6 | 20:34.29 | 4:23.24 | 92579 | 112327
7 | 24:57.53 | 3:54.57 | 112328 | 129934
8 | 28:52.35 | 3:12.59 | 129935 | 144393
9 | 32:05.19 | 4:05.00 | 144394 | 162768


Track 1

Filename F:\0\01 Can't Save Tomorrow.wav

Pre-gap length 0:00:02.48

Peak level 100.0 %
Extraction speed 2.9 X
Track quality 100.0 %
Test CRC A03BFF81
Copy CRC A03BFF81
Accurately ripped (confidence 1) [A0522B83] (AR v1)
Copy OK

Track 2

Filename F:\0\02 Mr. Nice Guy.wav

Peak level 100.0 %
Extraction speed 3.2 X
Track quality 100.0 %
Test CRC FBE0997F
Copy CRC FBE0997F
Accurately ripped (confidence 1) [F4B3996B] (AR v1)
Copy OK

Track 3

Filename F:\0\03 In The Groove.wav

Peak level 100.0 %
Extraction speed 3.0 X
Track quality 99.9 %
Test CRC 794FA621
Copy CRC 794FA621
Accurately ripped (confidence 1) [3E5BC654] (AR v1)
Copy OK

Track 4

Filename F:\0\04 Third Hour.wav

Peak level 100.0 %
Extraction speed 3.8 X
Track quality 100.0 %
Test CRC 816708B8
Copy CRC 816708B8
Accurately ripped (confidence 1) [53F7192D] (AR v1)
Copy OK

Track 5

Filename F:\0\05 You.wav

Peak level 100.0 %
Extraction speed 4.0 X
Track quality 100.0 %
Test CRC 2B77725E
Copy CRC 2B77725E
Accurately ripped (confidence 1) [085A5B3A] (AR v1)
Copy OK

Track 6

Filename F:\0\06 Big Stars.wav

Peak level 100.0 %
Extraction speed 4.2 X
Track quality 100.0 %
Test CRC 9B83B9E4
Copy CRC 9B83B9E4
Accurately ripped (confidence 1) [B86B9AB0] (AR v1)
Copy OK

Track 7

Filename F:\0\07 Rolling.wav

Peak level 100.0 %
Extraction speed 4.4 X
Track quality 100.0 %
Test CRC 16EEC592
Copy CRC 16EEC592
Accurately ripped (confidence 1) [CF0BDFF4] (AR v1)
Copy OK

Track 8

Filename F:\0\08 What Does It Take.wav

Peak level 100.0 %
Extraction speed 4.4 X
Track quality 100.0 %
Test CRC 27FB47E0
Copy CRC 27FB47E0
Accurately ripped (confidence 1) [A5D6A991] (AR v1)
Copy OK

Track 9

Filename F:\0\09 Off And On Again.wav

Peak level 98.5 %
Extraction speed 4.7 X
Track quality 100.0 %
Test CRC 143B65E9
Copy CRC 143B65E9
Accurately ripped (confidence 1) [7CB3A474] (AR v1)
Copy OK


All tracks accurately ripped

No errors occurred

End of status report

==== Log checksum 43070EB3A511EF2EBD8CF23EAD5C5111A304E9301B2CF981C56D3A1AAB70B30C ====

foobar2000 1.3.7 / Dynamic Range Meter 1.1.1
log date: 2015-10-09 17:10:36

––––––––––––––––––––––––––––––––––––––––
Analyzed: Ronnie Laws / Mr. Nice Guy
––––––––––––––––––––––––––––––––––––––––

DR Peak RMS Duration Track
––––––––––––––––––––––––––––––––––––––––
DR12 0.00 dB -13.89 dB 4:11 01-Can't Save Tomorrow
DR13 0.00 dB -14.17 dB 3:44 02-Mr. Nice Guy
DR11 0.00 dB -13.06 dB 3:34 03-In The Groove
DR13 0.00 dB -14.43 dB 4:58 04-Third Hour
DR12 0.00 dB -14.13 dB 4:08 05-You
DR13 0.00 dB -15.11 dB 4:23 06-Big Stars
DR15 0.00 dB -16.24 dB 3:55 07-Rolling
DR12 0.00 dB -14.51 dB 3:13 08-What Does It Take
DR13 -0.12 dB -15.44 dB 4:05 09-Off And On Again
––––––––––––––––––––––––––––––––––––––––

Number of tracks: 9
Official DR value: DR13

Samplerate: 44100 Hz
Channels: 2
Bits per sample: 16
Bitrate: 840 kbps
Codec: FLAC
================================================================================


All thanks to - funky_cat & Аndy


password: BlondStyle

Uploadable