Subcategories
Tags
Language
Tags

Antonio Pappano, Orchestra of the Royal Opera House - Rossini: Il Barbiere di Siviglia (2010) [Blu-Ray]

Posted By: Vilboa
Antonio Pappano, Orchestra of the Royal Opera House - Rossini: Il Barbiere di Siviglia (2010) [Blu-Ray]

Rossini - Il Barbiere di Siviglia (Antonio Pappano, Joyce DiDonato, Juan Diego Flórez) (2010) [Blu-Ray]
BluRay | BDMV | MPEG-4 AVC Video / 1080i / 29,970 fps | 177 min | 45,5 Gb
Audio1: Italian / LPCM Audio / 2.0 / 24-bit | Audio2: DTS-HD Master Audio / 5.1 / 48 kHz / 24-bit
––––––
BluRay-rip | AVC | MKV 1280x720 / 2735 kbps / 29,97 fps | 177 min | 8,13 Gb
Audio: Italiano / PCM / 2ch / 48.0 KHz / 24-bit | DTS / 6ch / 48.0 KHz / 24-bit
Classical | Erato | Sub: Italian, English, German, French, Spanish

Captured live at London’s Royal Opera House, this Barbiere, with its unbeatable cast and the directors’ characteristic wit and intelligence, offers a unique dramatic twist: Joyce DiDonato, who had broken her leg on the opening night, went on with the show. As she said: “Being trapped in the wheelchair was a quite literal way of demonstrating Rosina's huge desire to break free.

Cast:
Fiorello - Changhan Lim
Count Almaviva - Juan Diego Flórez
Figaro - Pietro Spagnoli
Rosina - Joyce DiDonato
Doctor Bartolo - Alessandro Corbelli
Don Basilio - Ferruccio Furlanetto
Berta - Jennifer Rhys-Davies
Ambrogio - Bryan Secombe
Officer - Christopher Lackner
Notary - Andrew Macnair
Orchestra and Chorus of the Royal Opera House
Conductor - Antonio Papano


01. Antonio Pappano Speech
02. Sinfonia
03. Act I: Scene 1: Piano pianissimo
04. Ecco ridente in cielo…
05. Ehi Fiorello?
06. Recitativo: Gente indiscreta!
07. Scene 2: Cavatina: La ran la lera… Largo al factotum
08. Recitativo: Ah, ah! Che bella vita!
09. Scene 3: Non è venuto ancora!
10. Scene 4: Povera disgraziata!
11. Canzone: Se il nome saper voi bramante
12. Recitativo: Oh cielo! Nella stanza convien dir
13. Duetto: All'idea di quel metallo…
14. Oh il meglio mi scordavo
15. Scene 5: Cavatina: Una voce poco fa…
16. Recitativo: Sì sì, la vincerò / Scene 6 / Scene 7
17. Scene 8: Ah! Barbiere di'inferno
18. Aria: La calunnia è un venticello
19. Scene 9: Recitativo: Ma bravi!
20. Duetto: Dunque io son
21. Scene 10: Recitativo: Ora mi sento meglio
22. Aria: A un dottor della mia sorte / Scene 11: Recitativo: Brontola quanto vuoi
23. Scene 12: Finora in questa camera
24. Ecco qua! sempre un'istoria
25. Zitti, ché battono
26. Freddo ed immobile
27. Ma, Signor! / Zitto tu!
28. Act II: Scene 1: Ma vedi il mio destino! / Scene 2: Duetto: Pace e gioia
29. Scene 2: Recitativo: Insomma, mio Signore
30. Non dubitate / Scene 3
31. Scene 3: Aria: Contro un cor che accende amore
32. Recitativo: Bella voce, bravissima! / Arietta: Quando mi sei vicina
33. Recitativo: Bravo, Signor barbiere
34. Scene 4: Quintetto: Don Basilio!…
35. Orsù, Signor Don Bartolo…
36. Scene 5: Recitativo: Ah! Disgraziato me / Scene 6
37. Scene 6: Aria: Il vecchiotto cerca moglie
38. Scene 7: Recitativo: Dunque voi Don Alonso non conoscete / Scene 8
39. Scene 8: Temporale
40. Scene 9: Recitativo: Alfine eccoci quà
41. Terzetto: Ah qual colpo inaspettato!
42. Zitti zitti, piano piano / Recitativo: Ah disgraziati noii
43. Scene 10: Don Bartolo…Don Basilio
44. Il conte d'Almaviva io sono
45. E tu, infelice vittima…
46. Ah il più lieto, il più felice
47. Recitativo: Insomma, io ho tutti i torti!
48. Di sì felice innesto
49. End Credits


General
ID : 0 (0x0)
Complete name : C:\IL_BARBIERE_DI_SIVIGLIA\BDMV\STREAM\00000.m2ts
Format : BDAV
Format/Info : Blu-ray Video
File size : 21.0 GiB
Duration : 1h 42mn
Overall bit rate mode : Variable
Overall bit rate : 29.3 Mbps
Maximum Overall bit rate : 48.0 Mbps

Video
ID : 4113 (0x1011)
Menu ID : 1 (0x1)
Format : AVC
Format/Info : Advanced Video Codec
Format profile : High@L4.1
Format settings, CABAC : Yes
Format settings, ReFrames : 4 frames
Codec ID : 27
Duration : 1h 42mn
Bit rate mode : Variable
Maximum bit rate : 31.0 Mbps
Width : 1 920 pixels
Height : 1 080 pixels
Display aspect ratio : 16:9
Frame rate : 29.970 fps
Color space : YUV
Chroma subsampling : 4:2:0
Bit depth : 8 bits
Scan type : MBAFF
Scan order : Top Field First

Audio #1
ID : 4352 (0x1100)
Menu ID : 1 (0x1)
Format : PCM
Format settings, Endianness : Big
Format settings, Sign : Signed
Muxing mode : Blu-ray
Codec ID : 128
Duration : 1h 42mn
Bit rate mode : Constant
Bit rate : 2 304 Kbps
Channel(s) : 2 channels
Channel positions : Front: L R
Sampling rate : 48.0 KHz
Bit depth : 24 bits
Stream size : 1.65 GiB (8%)

Audio #2
ID : 4353 (0x1101)
Menu ID : 1 (0x1)
Format : DTS
Format/Info : Digital Theater Systems
Format profile : MA / Core
Mode : 16
Format settings, Endianness : Big
Muxing mode : Stream extension
Codec ID : 134
Duration : 1h 42mn
Bit rate mode : Variable
Bit rate : Unknown / 1 509 Kbps
Channel(s) : 6 channels
Channel positions : Front: L C R, Side: L R, LFE
Sampling rate : 48.0 KHz
Bit depth : 24 bits
Compression mode : Lossless / Lossy

Text #1
ID : 4608 (0x1200)
Menu ID : 1 (0x1)
Format : PGS
Codec ID : 144

Text #2
ID : 4609 (0x1201)
Menu ID : 1 (0x1)
Format : PGS
Codec ID : 144

Text #3
ID : 4610 (0x1202)
Menu ID : 1 (0x1)
Format : PGS
Codec ID : 144

Text #4
ID : 4611 (0x1203)
Menu ID : 1 (0x1)
Format : PGS
Codec ID : 144

Text #5
ID : 4612 (0x1204)
Menu ID : 1 (0x1)
Format : PGS
Codec ID : 144


General
Unique ID : 174268217973862316978910793462507451527 (0x831AD682E9EFFA8F84CCCAF28C093487)
Complete name : C:\Il barbiere di Siviglia.mkv
Format : Matroska
Format version : Version 2
File size : 8.13 GiB
Duration : 2h 57mn
Overall bit rate : 6 567 Kbps
Movie name : Il barbiere di Siviglia
Encoded date : UTC 2021-05-15 14:16:47
Writing application : DVDFab 9.1.6.8
Writing library : libebml v0.7.8 + libmatroska v0.8.1

Video
ID : 1
Format : AVC
Format/Info : Advanced Video Codec
Format profile : High@L4.1
Format settings, CABAC : Yes
Format settings, ReFrames : 2 frames
Codec ID : V_MPEG4/ISO/AVC
Duration : 2h 57mn
Nominal bit rate : 2 735 Kbps
Width : 1 280 pixels
Height : 720 pixels
Display aspect ratio : 16:9
Frame rate mode : Constant
Frame rate : 29.970 fps
Color space : YUV
Chroma subsampling : 4:2:0
Bit depth : 8 bits
Scan type : Progressive
Bits/(Pixel*Frame) : 0.099
Writing library : x264 core 142
Encoding settings : cabac=1 / ref=1 / deblock=1:-1:-1 / analyse=0x3:0 / me=hex / subme=5 / psy=0 / mixed_ref=0 / me_range=16 / chroma_me=1 / trellis=0 / 8x8dct=1 / cqm=0 / deadzone=21,11 / fast_pskip=1 / chroma_qp_offset=0 / threads=8 / lookahead_threads=2 / sliced_threads=0 / nr=0 / decimate=1 / interlaced=0 / bluray_compat=0 / constrained_intra=0 / bframes=2 / b_pyramid=0 / b_adapt=1 / b_bias=0 / direct=1 / weightb=1 / open_gop=0 / weightp=0 / keyint=24 / keyint_min=13 / scenecut=40 / intra_refresh=0 / rc=abr / mbtree=0 / bitrate=2735 / ratetol=1.0 / qcomp=0.60 / qpmin=0 / qpmax=69 / qpstep=4 / ip_ratio=1.40 / pb_ratio=1.30 / aq=1:1.00
Default : Yes
Forced : No
Color primaries : BT.709
Transfer characteristics : BT.709
Matrix coefficients : BT.709
Color range : Limited

Audio #1
ID : 2
Format : PCM
Codec ID : A_PCM/INT/LIT
Duration : 2h 57mn
Bit rate mode : Constant
Channel(s) : 2 channels
Sampling rate : 48.0 KHz
Bit depth : 24 bits
Language : Italian
Default : Yes
Forced : No

Audio #2
ID : 3
Format : DTS
Format/Info : Digital Theater Systems
Mode : 16
Format settings, Endianness : Big
Codec ID : A_DTS
Duration : 2h 57mn
Bit rate mode : Constant
Bit rate : 1 509 Kbps
Channel(s) : 6 channels
Channel positions : Front: L C R, Side: L R, LFE
Sampling rate : 48.0 KHz
Bit depth : 24 bits
Compression mode : Lossy
Stream size : 1.87 GiB (23%)
Language : Italian
Default : No
Forced : No

Text #1
ID : 4
Format : VobSub
Codec ID : S_VOBSUB
Codec ID/Info : The same subtitle format used on DVDs
Language : English
Default : Yes
Forced : No

Text #2
ID : 5
Format : VobSub
Codec ID : S_VOBSUB
Codec ID/Info : The same subtitle format used on DVDs
Language : French
Default : No
Forced : No

Text #3
ID : 6
Format : VobSub
Codec ID : S_VOBSUB
Codec ID/Info : The same subtitle format used on DVDs
Language : German
Default : No
Forced : No

Text #4
ID : 7
Format : VobSub
Codec ID : S_VOBSUB
Codec ID/Info : The same subtitle format used on DVDs
Language : Italian
Default : No
Forced : No

Text #5
ID : 8
Format : VobSub
Codec ID : S_VOBSUB
Codec ID/Info : The same subtitle format used on DVDs
Language : Spanish
Default : No
Forced : No

Menu
00:00:00.000 : en:Chapter 01
00:02:26.479 : en:Chapter 02
00:09:58.998 : en:Chapter 03
00:13:17.797 : en:Chapter 04
00:18:09.221 : en:Chapter 05
00:21:12.738 : en:Chapter 06
00:22:23.208 : en:Chapter 07
00:27:20.538 : en:Chapter 08
00:29:56.795 : en:Chapter 09
00:31:44.535 : en:Chapter 10
00:34:56.160 : en:Chapter 11
00:38:12.990 : en:Chapter 12
00:39:21.125 : en:Chapter 13
00:44:04.274 : en:Chapter 14
00:48:23.333 : en:Chapter 15
00:55:11.508 : en:Chapter 16
00:58:10.420 : en:Chapter 17
01:00:05.168 : en:Chapter 18
01:05:33.863 : en:Chapter 19
01:08:03.546 : en:Chapter 20
01:13:16.358 : en:Chapter 21
01:14:56.658 : en:Chapter 22
01:21:52.974 : en:Chapter 23
01:29:58.226 : en:Chapter 24
01:31:49.403 : en:Chapter 25
01:34:01.802 : en:Chapter 26
01:37:13.794 : en:Chapter 27
01:42:22.669 : en:Chapter 28
01:46:23.844 : en:Chapter 29
01:48:39.613 : en:Chapter 30
01:50:04.931 : en:Chapter 31
01:58:30.803 : en:Chapter 32
02:00:34.660 : en:Chapter 33
02:03:38.010 : en:Chapter 34
02:10:10.536 : en:Chapter 35
02:14:15.113 : en:Chapter 36
02:15:26.218 : en:Chapter 37
02:19:05.370 : en:Chapter 38
02:23:04.842 : en:Chapter 39
02:26:04.355 : en:Chapter 40
02:27:40.218 : en:Chapter 41
02:32:37.181 : en:Chapter 42
02:34:24.188 : en:Chapter 43
02:36:04.154 : en:Chapter 44
02:39:40.070 : en:Chapter 45
02:42:01.178 : en:Chapter 46
02:46:49.866 : en:Chapter 47
02:48:16.419 : en:Chapter 48
02:50:57.380 : en:Chapter 49

All screenshots taken from BDRip

Antonio Pappano, Orchestra of the Royal Opera House - Rossini: Il Barbiere di Siviglia (2010) [Blu-Ray]