Tags
Language
Tags

Roz Vitalis - 4 Studio Albums (2007-2015)

Posted By: gribovar
Roz Vitalis - 4 Studio Albums (2007-2015)

Roz Vitalis - 4 Studio Albums (2007-2015)
EAC Rip | WavPack (image+.cue+log) - 1,25 GB | MP3 CBR 320 kbps (LAME 3.93) - 479 MB | Covers - 706 MB
Genre: Instrumental Progressive Rock | RAR 3% Rec. | Label: MALS, Lizard Records

The Russian band Roz Vitalis (from Saint Petersburg) exists since 2001 as a studio project, since 2005 as an electroacoustic chamber ensemble and since 2008 as a full-blown rock-band. Style of Roz Vitalis music can be described as the "Unclassifiable Branch of Prog Rock", Avant Prog, Sympho Prog, Instumental. The "metaphysical" goals of Roz Vitalis are "per musica ad lucem" and "to overcome chaos by means of making music". The main influences are Gentle Giant, Univers Zero, King Crimson, Le Orme, Yes.

Roz Vitalis - 4 Studio Albums (2007-2015)

Roz Vitalis - Compassionizer (2007)
EAC Rip | WavPack (image+.cue+log) - 318 MB | MP3 CBR 320 kbps (LAME 3.93) - 122 MB | Covers - 175 MB
Genre: Instrumental Progressive Rock | RAR 3% Rec. | Label: Self-released

Tracklist:
01. Tragic Fate
02. Autumn Of Hypocrisy
03. Compassionizer
04. Elusive Goodness
05. Wakatte Kudasai
06. Annihilator Of Moral Hazard
07. Dances Of Lost Opportunities
08. Disruption
09. Train Of Parting (Compassion Version)

Total time: 51:54

Exact Audio Copy V1.0 beta 6 from 9. April 2015

EAC extraction logfile from 29. June 2015, 9:26

Compassionizer / RozVitalis

Used drive : _NEC DVD_RW ND-4571A Adapter: 1 ID: 0

Read mode : Secure
Utilize accurate stream : Yes
Defeat audio cache : Yes
Make use of C2 pointers : No

Read offset correction : 48
Overread into Lead-In and Lead-Out : No
Fill up missing offset samples with silence : Yes
Delete leading and trailing silent blocks : No
Null samples used in CRC calculations : Yes
Used interface : Native Win32 interface for Win NT & 2000

Used output format : User Defined Encoder
Selected bitrate : 128 kBit/s
Quality : High
Add ID3 tag : No
Command line compressor : C:\Program Files\Exact Audio Copy\wavpack\wavpack.exe
Additional command line options : -hlmx4 %source% %dest%


TOC of the extracted CD

Track | Start | Length | Start sector | End sector
––––––––––––––––––––––––––––-
1 | 0:00.00 | 7:05.37 | 0 | 31911
2 | 7:05.37 | 3:58.52 | 31912 | 49813
3 | 11:04.14 | 5:21.06 | 49814 | 73894
4 | 16:25.20 | 4:24.18 | 73895 | 93712
5 | 20:49.38 | 7:27.14 | 93713 | 127251
6 | 28:16.52 | 6:22.58 | 127252 | 155959
7 | 34:39.35 | 5:37.43 | 155960 | 181277
8 | 40:17.03 | 3:41.25 | 181278 | 197877
9 | 43:58.28 | 7:55.14 | 197878 | 233516


Range status and errors

Selected range

Filename E:\Roz Vitalis\Compassionizer - RozVitalis.wav

Peak level 100.0 %
Extraction speed 5.1 X
Range quality 100.0 %
Test CRC B39B7924
Copy CRC B39B7924
Copy OK

No errors occurred


AccurateRip summary

Track 1 accurately ripped (confidence 2) [2240198D] (AR v2)
Track 2 accurately ripped (confidence 2) [D3E775F8] (AR v2)
Track 3 accurately ripped (confidence 2) [BF2B4A8B] (AR v2)
Track 4 accurately ripped (confidence 2) [30451CAB] (AR v2)
Track 5 accurately ripped (confidence 2) [9D445C9C] (AR v2)
Track 6 accurately ripped (confidence 2) [9D93FA4D] (AR v2)
Track 7 accurately ripped (confidence 2) [C336DCE9] (AR v2)
Track 8 accurately ripped (confidence 2) [4C65F9B5] (AR v2)
Track 9 accurately ripped (confidence 2) [88A70974] (AR v2)

All tracks accurately ripped

End of status report

==== Log checksum BEA8A0187E67D58475BAE51CDB8F9755E3E2BFE41F40CD844D637BD3A4376E21 ====

[CUETools log; Date: 31.07.2021 11:45:18; Version: 2.1.4]
[CTDB TOCID: rEGWpm2aZRT03GOLShKeQ8Yhlpc-] found.
Track | CTDB Status
1 | (4/4) Accurately ripped
2 | (4/4) Accurately ripped
3 | (4/4) Accurately ripped
4 | (4/4) Accurately ripped
5 | (4/4) Accurately ripped
6 | (4/4) Accurately ripped
7 | (4/4) Accurately ripped
8 | (4/4) Accurately ripped
9 | (4/4) Accurately ripped
[AccurateRip ID: 00117983-0080285c-810c2909] found.
Track [ CRC | V2 ] Status
01 [154cd10e|2240198d] (0+3/3) Accurately ripped
02 [4a929099|d3e775f8] (0+3/3) Accurately ripped
03 [9b04cb7f|bf2b4a8b] (0+3/3) Accurately ripped
04 [c4fab37d|30451cab] (0+3/3) Accurately ripped
05 [bd55dacf|9d445c9c] (0+3/3) Accurately ripped
06 [1aaae258|9d93fa4d] (0+3/3) Accurately ripped
07 [a69799aa|c336dce9] (0+3/3) Accurately ripped
08 [55d3ff03|4c65f9b5] (0+3/3) Accurately ripped
09 [3b4a4410|88a70974] (0+3/3) Accurately ripped

Track Peak [ CRC32 ] [W/O NULL] [ LOG ]
– 100,0 [B39B7924] [1A4C5F76] CRC32
01 100,0 [D2BDCDE4] [9607ED13]
02 100,0 [CE301972] [406E7BE6]
03 100,0 [87FD7A75] [7EA73D4B]
04 96,5 [F5BD7365] [60C3CEBA]
05 100,0 [FC68E78A] [9C4F7036]
06 97,2 [D44287A7] [064D8E7A]
07 96,5 [F9734745] [1A312765]
08 99,2 [0D7FA038] [31AB3589]
09 100,0 [DD6EF637] [6120BF3E]

Roz Vitalis - 4 Studio Albums (2007-2015)

Roz Vitalis - Revelator (2011)
EAC Rip | WavPack (image+.cue+log) - 256 MB | MP3 CBR 320 kbps (LAME 3.93) - 108 MB | Covers - 180 MB
Genre: Instrumental Progressive Rock | RAR 3% Rec. | Label: MALS (MALS 374)

Tracklist:
01. Revelator
02. Warm Tuesday
03. Deadlock Of The Deceiver
04. Painsadist (Hit Version)
05. Underfrog
06. Midwinter Tulips
07. La Combattimento Spirituale
08. Persecuted
09. Silver Melting

Total time: 46:00

Exact Audio Copy V1.0 beta 6 from 9. April 2015

EAC extraction logfile from 5. July 2015, 9:51

Roz Vitalis / Revelator

Used drive : _NEC DVD_RW ND-4571A Adapter: 1 ID: 0

Read mode : Secure
Utilize accurate stream : Yes
Defeat audio cache : Yes
Make use of C2 pointers : No

Read offset correction : 48
Overread into Lead-In and Lead-Out : No
Fill up missing offset samples with silence : Yes
Delete leading and trailing silent blocks : No
Null samples used in CRC calculations : Yes
Used interface : Native Win32 interface for Win NT & 2000

Used output format : User Defined Encoder
Selected bitrate : 128 kBit/s
Quality : High
Add ID3 tag : No
Command line compressor : C:\Program Files\Exact Audio Copy\wavpack\wavpack.exe
Additional command line options : -hlmx4 %source% %dest%


TOC of the extracted CD

Track | Start | Length | Start sector | End sector
––––––––––––––––––––––––––––-
1 | 0:00.00 | 5:14.60 | 0 | 23609
2 | 5:14.60 | 3:59.23 | 23610 | 41557
3 | 9:14.08 | 4:09.57 | 41558 | 60289
4 | 13:23.65 | 3:27.25 | 60290 | 75839
5 | 16:51.15 | 7:12.17 | 75840 | 108256
6 | 24:03.32 | 2:10.61 | 108257 | 118067
7 | 26:14.18 | 6:30.24 | 118068 | 147341
8 | 32:44.42 | 10:17.11 | 147342 | 193627
9 | 43:01.53 | 2:57.68 | 193628 | 206970


Range status and errors

Selected range

Filename E:\Roz Vitalis - Revelator\Roz Vitalis - Revelator.wav

Peak level 100.0 %
Extraction speed 4.8 X
Range quality 99.9 %
Test CRC 2B8AC637
Copy CRC 2B8AC637
Copy OK

No errors occurred


AccurateRip summary

Track 1 accurately ripped (confidence 4) [F3AF6C4D] (AR v2)
Track 2 accurately ripped (confidence 4) [B9E0F96C] (AR v2)
Track 3 accurately ripped (confidence 4) [38148EFA] (AR v2)
Track 4 accurately ripped (confidence 4) [213F77CC] (AR v2)
Track 5 accurately ripped (confidence 4) [070DA86A] (AR v2)
Track 6 accurately ripped (confidence 4) [838BF72C] (AR v2)
Track 7 accurately ripped (confidence 4) [3C7BAA96] (AR v2)
Track 8 accurately ripped (confidence 4) [23700439] (AR v2)
Track 9 accurately ripped (confidence 4) [0F2F439E] (AR v2)

All tracks accurately ripped

End of status report

==== Log checksum 76F53272C67BAF34669ABC092C97733F31D61CE224B48927504515D37C4674C2 ====

[CUETools log; Date: 31.07.2021 11:47:45; Version: 2.1.4]
[CTDB TOCID: PBAj568aRwE6FmGJdr_X_TM00Vs-] found.
Track | CTDB Status
1 | (5/5) Accurately ripped
2 | (5/5) Accurately ripped
3 | (5/5) Accurately ripped
4 | (5/5) Accurately ripped
5 | (5/5) Accurately ripped
6 | (5/5) Accurately ripped
7 | (5/5) Accurately ripped
8 | (5/5) Accurately ripped
9 | (5/5) Accurately ripped
[AccurateRip ID: 000ee2cc-006ec4eb-770ac709] found.
Track [ CRC | V2 ] Status
01 [a29b869b|f3af6c4d] (0+5/5) Accurately ripped
02 [8bf066e1|b9e0f96c] (0+5/5) Accurately ripped
03 [cda22041|38148efa] (0+5/5) Accurately ripped
04 [0d60c0a0|213f77cc] (0+5/5) Accurately ripped
05 [8626c3c8|070da86a] (0+5/5) Accurately ripped
06 [baf37ae2|838bf72c] (0+5/5) Accurately ripped
07 [f70b6dfd|3c7baa96] (0+5/5) Accurately ripped
08 [fe5a289f|23700439] (0+5/5) Accurately ripped
09 [164fcc51|0f2f439e] (0+5/5) Accurately ripped

Track Peak [ CRC32 ] [W/O NULL] [ LOG ]
– 99,9 [2B8AC637] [28857AF0] CRC32
01 98,8 [6556DD49] [21AEE8D9]
02 99,9 [7A369D5E] [CD29738A]
03 98,8 [41E6ECE5] [89EDCDD5]
04 98,8 [449D408F] [3D18B0AF]
05 98,8 [D0654B0B] [6EB78AB9]
06 98,8 [84276C25] [7267FE63]
07 96,6 [6F6C5233] [8F32C80E]
08 99,9 [276EFC77] [3142F3A1]
09 99,9 [AEA02E2A] [1A25059E]

Roz Vitalis - 4 Studio Albums (2007-2015)

Roz Vitalis - Patience Of Hope (2012)
EAC Rip | WavPack (image+.cue+log) - 315 MB | MP3 CBR 320 kbps (LAME 3.93) - 116 MB | Covers - 124 MB
Genre: Instrumental Progressive Rock | RAR 3% Rec. | Label: MALS (MALS 392)

Tracklist:
01. Patience Of Hope
02. The Unfading Sun (The Loved Version)
03. To Stir Up Your Pure Minds
04. Seeds Fell Among Thorns
05. The Forgiven Monday
06. Gorgeous Cliff
07. Mother Of All Rain
08. Confidence
09. Dove Il Sole E Meraviglia
10. Touching Upon The Mystery
11. The Unfading Sun (The Loving Version)

Total time: 49:26

Exact Audio Copy V1.0 beta 6 from 9. April 2015

EAC extraction logfile from 5. July 2015, 21:42

Roz Vitalis / Patience of hope

Used drive : _NEC DVD_RW ND-4571A Adapter: 1 ID: 0

Read mode : Secure
Utilize accurate stream : Yes
Defeat audio cache : Yes
Make use of C2 pointers : No

Read offset correction : 48
Overread into Lead-In and Lead-Out : No
Fill up missing offset samples with silence : Yes
Delete leading and trailing silent blocks : No
Null samples used in CRC calculations : Yes
Used interface : Native Win32 interface for Win NT & 2000

Used output format : User Defined Encoder
Selected bitrate : 128 kBit/s
Quality : High
Add ID3 tag : No
Command line compressor : C:\Program Files\Exact Audio Copy\wavpack\wavpack.exe
Additional command line options : -hlmx4 %source% %dest%


TOC of the extracted CD

Track | Start | Length | Start sector | End sector
––––––––––––––––––––––––––––-
1 | 0:00.00 | 6:43.45 | 0 | 30269
2 | 6:43.45 | 2:50.22 | 30270 | 43041
3 | 9:33.67 | 3:10.37 | 43042 | 57328
4 | 12:44.29 | 6:18.08 | 57329 | 85686
5 | 19:02.37 | 3:36.44 | 85687 | 101930
6 | 22:39.06 | 1:35.40 | 101931 | 109095
7 | 24:14.46 | 4:28.22 | 109096 | 129217
8 | 28:42.68 | 5:53.64 | 129218 | 155756
9 | 34:36.57 | 1:56.54 | 155757 | 164510
10 | 36:33.36 | 8:56.00 | 164511 | 204710
11 | 45:29.36 | 3:57.00 | 204711 | 222485


Range status and errors

Selected range

Filename E:\Roz Vitalis - Patience of Hope (2012)\Roz Vitalis - Patience of hope.wav

Peak level 98.9 %
Extraction speed 5.0 X
Range quality 100.0 %
Test CRC 54265347
Copy CRC 54265347
Copy OK

No errors occurred


AccurateRip summary

Track 1 accurately ripped (confidence 4) [7828800C] (AR v2)
Track 2 accurately ripped (confidence 4) [2F573A6F] (AR v2)
Track 3 accurately ripped (confidence 4) [FD8C76C9] (AR v2)
Track 4 accurately ripped (confidence 4) [9A77D329] (AR v2)
Track 5 accurately ripped (confidence 4) [49678091] (AR v2)
Track 6 accurately ripped (confidence 4) [F6F4E08F] (AR v2)
Track 7 accurately ripped (confidence 4) [42046930] (AR v2)
Track 8 accurately ripped (confidence 4) [9D0B5B96] (AR v2)
Track 9 accurately ripped (confidence 4) [485CA6AD] (AR v2)
Track 10 accurately ripped (confidence 4) [CEA185A2] (AR v2)
Track 11 accurately ripped (confidence 4) [5632B628] (AR v2)

All tracks accurately ripped

End of status report

==== Log checksum 66A3FA5F8E1B6A2FE3D525AD91C2A296D538797D7944C349EF8B0150B6176333 ====

[CUETools log; Date: 31.07.2021 11:49:50; Version: 2.1.4]
[CTDB TOCID: zdLXWPW283NO4j6w.pp1SZvOpl4-] found.
Track | CTDB Status
1 | (7/7) Accurately ripped
2 | (7/7) Accurately ripped
3 | (7/7) Accurately ripped
4 | (7/7) Accurately ripped
5 | (7/7) Accurately ripped
6 | (7/7) Accurately ripped
7 | (7/7) Accurately ripped
8 | (7/7) Accurately ripped
9 | (7/7) Accurately ripped
10 | (7/7) Accurately ripped
11 | (7/7) Accurately ripped
[AccurateRip ID: 0013e5e6-00ab47a4-910b960b] found.
Track [ CRC | V2 ] Status
01 [41717682|7828800c] (0+5/5) Accurately ripped
02 [6f1cf622|2f573a6f] (0+5/5) Accurately ripped
03 [979bf281|fd8c76c9] (0+5/5) Accurately ripped
04 [6dfe11be|9a77d329] (0+5/5) Accurately ripped
05 [2f756d2a|49678091] (0+5/5) Accurately ripped
06 [eae275f5|f6f4e08f] (0+5/5) Accurately ripped
07 [3aaf654f|42046930] (0+5/5) Accurately ripped
08 [82eb256e|9d0b5b96] (0+5/5) Accurately ripped
09 [6d13174c|485ca6ad] (0+5/5) Accurately ripped
10 [47266db7|cea185a2] (0+5/5) Accurately ripped
11 [70a4378e|5632b628] (0+5/5) Accurately ripped

Track Peak [ CRC32 ] [W/O NULL] [ LOG ]
– 98,9 [54265347] [0A954C5C] CRC32
01 98,9 [118853E1] [9B5E6078]
02 98,9 [3FCEC271] [8E6BA55E]
03 98,9 [6AA9ABA3] [3C916C37]
04 98,9 [95775E63] [7F93F3C4]
05 98,9 [25DEB348] [D943AB71]
06 98,9 [4E1F0BB6] [E569DE35]
07 98,9 [A7E8D3FB] [79B7C415]
08 98,9 [E1A0578F] [0ABF4BD4]
09 98,9 [936C50E8] [6A1A6FDD]
10 98,9 [A5730578] [13E99D67]
11 98,9 [919834A7] [71EC05A4]

Roz Vitalis - 4 Studio Albums (2007-2015)

Roz Vitalis - Lavoro D'Amore (2015) (Re-up)
EAC Rip | WavPack (image+.cue+log) - 366 MB | MP3 CBR 320 kbps (LAME 3.93) - 133 MB | Covers - 227 MB
Genre: Instrumental Progressive Rock | RAR 3% Rec. | Label: Lizard Records (LIZARD CD 0114)

Tracklist:
01. The Acknowledgement Day
02. Lavoro D'amore
03. Unanticipated
04. Il Vento Ritorna
05. There Are The Workers Of Iniquity Fallen
06. Need For Someone Else
07. Invisible Animals
08. Every Branch That Beareth Fruit
09. Ascension Dream (Peak Version)
10. What Are You Thinking About?
11. Ending

Total time: 56:27

Exact Audio Copy V1.0 beta 6 from 9. April 2015

EAC extraction logfile from 6. July 2015, 10:02

Roz Vitalis / Lavoro D'Amore

Used drive : _NEC DVD_RW ND-4571A Adapter: 1 ID: 0

Read mode : Secure
Utilize accurate stream : Yes
Defeat audio cache : Yes
Make use of C2 pointers : No

Read offset correction : 48
Overread into Lead-In and Lead-Out : No
Fill up missing offset samples with silence : Yes
Delete leading and trailing silent blocks : No
Null samples used in CRC calculations : Yes
Used interface : Native Win32 interface for Win NT & 2000

Used output format : User Defined Encoder
Selected bitrate : 128 kBit/s
Quality : High
Add ID3 tag : No
Command line compressor : C:\Program Files\Exact Audio Copy\wavpack\wavpack.exe
Additional command line options : -hlmx4 %source% %dest%


TOC of the extracted CD

Track | Start | Length | Start sector | End sector
––––––––––––––––––––––––––––-
1 | 0:00.00 | 4:34.47 | 0 | 20596
2 | 4:34.47 | 4:34.55 | 20597 | 41201
3 | 9:09.27 | 5:44.24 | 41202 | 67025
4 | 14:53.51 | 4:05.47 | 67026 | 85447
5 | 18:59.23 | 5:23.38 | 85448 | 109710
6 | 24:22.61 | 6:46.10 | 109711 | 140170
7 | 31:08.71 | 5:13.59 | 140171 | 163704
8 | 36:22.55 | 4:39.35 | 163705 | 184664
9 | 41:02.15 | 3:47.45 | 184665 | 201734
10 | 44:49.60 | 8:27.29 | 201735 | 239788
11 | 53:17.14 | 3:09.58 | 239789 | 254021


Range status and errors

Selected range

Filename E:\Roz Vitalis - Lavoro D'Amore\Roz Vitalis - Lavoro D'Amore.wav

Peak level 100.0 %
Extraction speed 4.7 X
Range quality 99.9 %
Test CRC 17A0B463
Copy CRC 17A0B463
Copy OK

No errors occurred


AccurateRip summary

Track 1 accurately ripped (confidence 1) [8BF82AF8] (AR v2)
Track 2 accurately ripped (confidence 1) [5EC3B3EF] (AR v2)
Track 3 accurately ripped (confidence 1) [B4231846] (AR v2)
Track 4 accurately ripped (confidence 1) [58F1A4FE] (AR v2)
Track 5 accurately ripped (confidence 1) [B80FDB8E] (AR v2)
Track 6 accurately ripped (confidence 1) [43061DAA] (AR v2)
Track 7 accurately ripped (confidence 1) [C0ACDD0B] (AR v2)
Track 8 accurately ripped (confidence 1) [9F125A8D] (AR v2)
Track 9 accurately ripped (confidence 1) [45D87F66] (AR v2)
Track 10 accurately ripped (confidence 1) [C6717DA0] (AR v2)
Track 11 accurately ripped (confidence 1) [7E3D043C] (AR v2)

All tracks accurately ripped

End of status report

==== Log checksum 6FAC85E2DBF2364BBB14CCD2E6AD94FA6D8BD7A159BBE2331B5533FD261FC063 ====

[CUETools log; Date: 31.07.2021 11:51:14; Version: 2.1.4]
[CTDB TOCID: R8DzorPabBfTznGCjw_QaLKe9xc-] found.
Track | CTDB Status
1 | (7/7) Accurately ripped
2 | (7/7) Accurately ripped
3 | (7/7) Accurately ripped
4 | (7/7) Accurately ripped
5 | (7/7) Accurately ripped
6 | (7/7) Accurately ripped
7 | (7/7) Accurately ripped
8 | (7/7) Accurately ripped
9 | (7/7) Accurately ripped
10 | (7/7) Accurately ripped
11 | (7/7) Accurately ripped
[AccurateRip ID: 001702e7-00c906fe-9f0d3a0b] found.
Track [ CRC | V2 ] Status
01 [d2b7c8b9|8bf82af8] (0+3/3) Accurately ripped
02 [b0805f7d|5ec3b3ef] (0+3/3) Accurately ripped
03 [ecc52705|b4231846] (0+3/3) Accurately ripped
04 [cb56c20f|58f1a4fe] (0+3/3) Accurately ripped
05 [4062f98a|b80fdb8e] (0+3/3) Accurately ripped
06 [e6bfa94a|43061daa] (0+3/3) Accurately ripped
07 [804c0e52|c0acdd0b] (0+3/3) Accurately ripped
08 [8104cfb0|9f125a8d] (0+3/3) Accurately ripped
09 [ed72a2a2|45d87f66] (0+3/3) Accurately ripped
10 [e9630cae|c6717da0] (0+3/3) Accurately ripped
11 [fed889f5|7e3d043c] (0+3/3) Accurately ripped

Track Peak [ CRC32 ] [W/O NULL] [ LOG ]
– 100,0 [17A0B463] [34E268E0] CRC32
01 100,0 [3DF422F2] [7E027B85]
02 100,0 [8ECD9AD3] [95076CCC]
03 99,9 [30CB5830] [BFE906A6]
04 100,0 [B47275A2] [F33C5A4F]
05 100,0 [4E501C2A] [DD99FB88]
06 100,0 [EA9DEEA2] [D1BA0FDB]
07 100,0 [380383DE] [053DDF7D]
08 95,0 [ECA9070E] [6219F1DA]
09 100,0 [4A0CDE09] [55AF814B]
10 100,0 [F1D9C9A4] [634E78C7]
11 99,8 [68C25592] [7487DD23]

Thanks to arizonadream