Subcategories

Rudolf Buchbinder - Haydn: Complete Piano Sonatas (2006) (10 CDs Box Set)

Posted By: murena
Rudolf Buchbinder - Haydn: Complete Piano Sonatas (2006) (10 CDs Box Set)

Rudolf Buchbinder - Haydn: Complete Piano Sonatas (2006) (10 CDs Box Set)
EAC Rip | FLAC (Tracks+.cue, log) | 10 CD, 11:44:19 min | 2,3 Gb | Scans->62 mb
Genre: Classical / Label: Warner Classics

It's not as if recordings of the 62 Piano Sonatas of Franz Josef Haydn are thick on the ground. Among the relative big names, there's Jeno Jando on Naxos and John McCabe on Decca. Among the less well-known names, there's Walid Akl on Koch Discover, Roland Batik on Camerata, Ronald Brautigam on BIS, Walter Olbertz on Berlin Classics, and Christine Schornsheim on Capriccio. And for those listeners with record players and aging memories, there's also the venerable Hungaroton cycle, the first complete recorded cycle, that coupled relatively well-known Hungarians like Zoltán Kocsis and Dezsö Ránki with nearly unknown Hungarians like János Sebestyén and the inimitable Zsuzsa Pertis.

Among that less-than-entirely illustrious company, these early-'70s recordings by Rudolf Buchbinder for Telefunken reissued here by Warner Classics are quite distinguished. They are distinguished by Buchbinder's agile finger work and minimal pedal work and by his quite cool interpretations that catch the spirit of Haydn's fast movements but miss the charm of his Menuettos and the depths of his slow movements. Telefunken's stereo recordings were clear and close, but not particularly atmospheric, and although Buchbinder's choice of the Weiner-Urtext Edition is to be commended, his set of the sonatas cannot be recommended above Jando's or McCabe's.

Rudolf Buchbinder - Haydn: Complete Piano Sonatas (2006) (10 CDs Box Set)


TRACKLIST:
CD1 69:04
Sonata No. 1 In G Major, Hob.XVI:8
01. Allegro
02. Menuet
03. Andante
04. Allegro
Sonata No. 2 In С Major, Hob.XVI:7
05. Allegro Moderato
06. Menuet
07. Finale: Allegro
Sonata No. 3 In F Major, Hob.XVI:9
08. Allegro
09. Menuet
10. Scherzo: (Allegro)
Sonata No. 4 In G Major, Hob.XVI:G 1
11. Allegro
12. Menuetto
13. Finale: Presto
Sonata No. 5 In G Major, Hob.XVI: 11
14. Presto
15. Andante
16. Menuet
Sonata No. 6 In С Major, Hob.XVI:10
17. Moderato
18. Menuet
19. Finale: Presto
Sonata No. 7 In D Major, Hob.XVII:D 1
20. Tema, Variationen 1-3 (Moderato)
21. Menuet
22. Finale: (Allegro)
Sonata No. 8 In A Major, Hob.XVI:5
23. Allegro
24. Menuet
25. Presto
Sonata No. 9 In D Major, Hob.XVI:4
26. (Moderato)
27. Menuet
Sonata No. 10 In С Major, Hob.XVI:1
28. Allegro
29. Adagio
30. Menuet

CD2 67:15
Sonata No. 11 In В Flat Major, Hob.XVI:2
01. Moderato
02. Largo
03. Menuet
Sonata No. 12 In A Major, Hob.XVI: 12
04. Andante
05. Menuet
06. Finale: (Allegro Molto)
Sonata No. 13 In G Major, Hob.XVI:6
07. Allegro
08. Menuet
09. Adagio
10. Finale: Allegro Molto
Sonata No. 14 In С Major, Hob.XVI:3
11. Allegretto
12. Andante
13. Menuet
Sonata No. 15 In E Major, Hob.XVI:13
14. Moderato
15. Menuet
16. Finale: Presto
Sonata No. 16 In D Major, Hob.XVI:14
17. Allegretto Moderato
18. Menuet
19. Finale: Allegro

CD3 65:02
Sonata No. 17 In E Flat Major, Hob.Deest
01. Moderato
02. Andante
03. Menuetto
Sonata No. 18 In E Flat Major, Hob.Deest
04. (Allegro Moderato)
05. Menuetto
06. Finale: Allegro Assai
Sonata No. 19 In E Minor, Cf./Vgl. Hob.XVI:47
07. Adagio
08. Allegro
09. Finale: Tempo Di Menuet
Sonata No. 20 In В Flat Major, Hob.XVI:18
10. Allegro Moderato
11. Moderato
Sonata No. 29 In E Flat Major, Hob.XVI:45
12. Moderato
13. Andante
14. Finale: Allegro Di Molto

CD4 74:23
Sonata No. 30 In D Major, Hob.Xvl:19
01. Moderato
02. Andante
03. Finale: Allegro Assai
Sonata No. 31 In A Flat Major, Hob.XVI:46
04. Allegro Moderato
05. Adagio
06. Finale: Presto
Sonata No. 32 In G Minor, Hob.XVI:44
07. Moderato
08. Allegretto
Sonata No. 33 In С Minor, Hob.XVI:20
09. Moderato
10. Andante Con Moto
11. Finale: Allegro
Sonata No. 34 In D Major, Hob.XVI:33
12. Allegro
13. Adagio - Tempo Di Menuet

CD5 69:01
Sonata No. 35 In A Flat Major, Hob.XVI:43
01. Moderato
02. Menuetto
03. Rondo: Presto
Sonata No. 36 In С Major, Hob.XVI:21
04. Allegro
05. Adagio
06. Finale: Presto
Sonata No. 37 In E Major, Hob.Xvl:22
07. Allegro Moderato
08. Andante
09. Finale: Tempo Di Menuet
Sonata No. 38 In F Major, Hob.XVI:23
10. (Moderato)
11. Adagio
12. Finale: Presto
Sonata No. 39 In D Major, Hob.XVI:24
13. Allegro
14. Adagio - Finale: Presto
Sonata No. 40 In E Flat Major, Hob.XVI:25
15. Moderato
16. Tempo Di Menuet

CD6 77:05
Sonata No. 41 In A Major, Hob.XVI:26
01. Allegro Moderato
02. Menuet Al Rovescio
03. Finale: Presto
Sonata No. 42 In G Major, Hob.XVI:27
04. Allegro Con Brio
05. Menuet
06. Finale: Presto
Sonata No. 43 In E Flat Major, Hob.XVI:28
07. Allegro Moderato
08. Menuet
09. Finale: Presto
Sonata No. 44 In F Major, Hob.XVI:29
10. Moderato
11. Adagio
12. Tempo Di Menuet
Sonata No. 45 In A Major, Hob.XVI:30
13. Allegro - Adagio
14. Tempo Di Menuet
Sonata No. 47 In В Minor, Hob.XVI:32
15. Allegro Moderato
16. Menuet
17. Finale: Presto

CD7 63:41
Sonata No. 46 In E Major, Hob.XVI:31
01. Moderato
02. Allegretto
03. Finale: Presto
Sonata No. 48 In С Major, Hob.XVI:35
04. Allegro Con Brio
05. Adagio
06. Finale: Allegro
Sonata No. 49 In С Sharp Minor, Hob.XVI:36
07. Moderato
08. Scherzando: Allegro Con Brio
09. Menuet: Moderato
Sonata No. 50 In D Major, Hob.XVI:37
10. Allegro Con Brio
11. Largo E Sostenuto - Finale: Presto, Ma Non Troppo
Sonata No. 51 In E Flat Major, Hob.XVI:38
12. Allegro Moderato
13. Adagio
14. Finale: Allegro

CD8 71:17
Sonata No. 52 In G Major, Hob.XVI:39
01. Allegro Con Brio
02. Adagio
03. Prestissimo
Sonata No. 53 In E Minor, Hob.XVI:34
04. Presto
05. Adagio - Vivace Molto Innocentemente
Sonata No. 54 In G Major, Hob.XVI:40
06. Allegretto Innocente
07. Presto
Sonata No. 55 In В Flat Major, Hob.XVI:41
08. Allegro
09. Allegro Di Molto
Sonata No. 56 In D Major, Hob.XVI:42
10. Andante Con Espressione
11. Vivace Assai
Sonata No. 57 In F Major, Hob.XVI:47
12. Moderato
13. Larghetto
14. Allegro

CD9 73:37
Sonata No. 58 In С Major, Hob.XVI:48
01. Andante Con Espressione
02. Rondo: Presto
Sonata No. 59 In E Flat Major, Hob.XVI:49
03. Allegro
04. Adagio E Cantabile
05. Finale: Tempo Di Menuet
Sonata No. 60 In С Major, Hob.XVI:50
06. Allegro
07. Adagio
08. Allegro Molto
Sonata No. 61 In D Major, Hob.XVI:51
09. Andante
10. Finale: Presto
Sonata No. 62 In E Flat Major, Hob.XVI:52
11. Allegro
12. Adagio
13. Finale: Presto

CD10 75:11
Sonata In С Major, Hob.XVI:15
01. Allegro
02. Menuetto
03. Air: Moderato
Sonata In E Flat Major, Hob.XVI:16
04. Andante
05. Menuetto
06. Presto
07. Sonata In F Minor, Hob.XVII:6
(Un Piccolo Divertimento; Variations)
08. 12 Variations In E Flat Major, Hob.XVII:3
09. 6 Variations In С Major, Hob.XVII:5
10. 20 Variazioni In A Major, Hob.XVII:2
11. Alternative Variation For Hob.XVII:2
12. 5 Variations In D Major, Hob.XVII:7


Exact Audio Copy V0.99 prebeta 4 from 23. January 2008
EAC extraction logfile from 28. September 2010, 16:47
Rudolf Buchbinder / F.J.Haydn - Complete Piano Sonatas CD1
Used drive : PIONEER DVD-RW DVR-112D Adapter: 0 ID: 0
Read mode : Secure
Utilize accurate stream : Yes
Defeat audio cache : Yes
Make use of C2 pointers : No
Read offset correction : 48
Overread into Lead-In and Lead-Out : No
Fill up missing offset samples with silence : Yes
Delete leading and trailing silent blocks : No
Null samples used in CRC calculations : Yes
Used interface : Native Win32 interface for Win NT & 2000
Gap handling : Appended to previous track
Used output format : User Defined Encoder
Selected bitrate : 768 kBit/s
Quality : High
Add ID3 tag : No
Command line compressor : C:\Program Files\Exact Audio Copy\FLAC\FLAC.EXE
Additional command line options : -6 -V -T "ARTIST=%a" -T "TITLE=%t" -T "ALBUM=%g" -T "DATE=%y" -T "TRACKNUMBER=%n" -T "GENRE=%m" -T "COMMENT=%e" %s -o %d
TOC of the extracted CD
Track | Start | Length | Start sector | End sector
––––––––––––––––––––––––––––-
1 | 0:00.00 | 2:20.40 | 0 | 10539
2 | 2:20.40 | 1:02.62 | 10540 | 15251
3 | 3:23.27 | 1:08.30 | 15252 | 20381
4 | 4:31.57 | 0:37.40 | 20382 | 23196
5 | 5:09.22 | 1:22.10 | 23197 | 29356
6 | 6:31.32 | 2:03.40 | 29357 | 38621
7 | 8:34.72 | 1:29.25 | 38622 | 45321
8 | 10:04.22 | 2:11.28 | 45322 | 55174
9 | 12:15.50 | 2:33.15 | 55175 | 66664
10 | 14:48.65 | 0:45.50 | 66665 | 70089
11 | 15:34.40 | 2:30.07 | 70090 | 81346
12 | 18:04.47 | 2:16.03 | 81347 | 91549
13 | 20:20.50 | 1:28.12 | 91550 | 98161
14 | 21:48.62 | 1:27.43 | 98162 | 104729
15 | 23:16.30 | 2:56.67 | 104730 | 117996
16 | 26:13.22 | 2:30.68 | 117997 | 129314
17 | 28:44.15 | 3:42.02 | 129315 | 145966
18 | 32:26.17 | 2:39.30 | 145967 | 157921
19 | 35:05.47 | 2:48.30 | 157922 | 170551
20 | 37:54.02 | 4:02.53 | 170552 | 188754
21 | 41:56.55 | 0:44.17 | 188755 | 192071
22 | 42:40.72 | 1:50.40 | 192072 | 200361
23 | 44:31.37 | 4:30.58 | 200362 | 220669
24 | 49:02.20 | 1:54.45 | 220670 | 229264
25 | 50:56.65 | 2:53.22 | 229265 | 242261
26 | 53:50.12 | 3:45.48 | 242262 | 259184
27 | 57:35.60 | 2:34.32 | 259185 | 270766
28 | 60:10.17 | 2:51.65 | 270767 | 283656
29 | 63:02.07 | 3:36.53 | 283657 | 299909
30 | 66:38.60 | 2:26.00 | 299910 | 310859
Track 1
Filename N:\HAYDN, FRANZ JOSEPH\F.J.Haydn - Complete Piano Sonatas - Rudolf Buchbinder (10 CD)\CD 1\01 - Sonata 1 in G major - I.Allegro - Rudolf Buchbinder.wav
Pre-gap length 0:00:02.00
Peak level 77.8 %
Track quality 100.0 %
Copy CRC B7300A71
Accurately ripped (confidence 5) [7A9EB8FD]
Copy OK
Track 2
Filename N:\HAYDN, FRANZ JOSEPH\F.J.Haydn - Complete Piano Sonatas - Rudolf Buchbinder (10 CD)\CD 1\02 - Sonata 1 in G major - II.Menuet - Rudolf Buchbinder.wav
Peak level 27.2 %
Track quality 99.8 %
Copy CRC 1F46D8D3
Cannot be verified as accurate (confidence 5) [4BD71173], AccurateRip returned [C6E0343B]
Copy OK
Track 3
Filename N:\HAYDN, FRANZ JOSEPH\F.J.Haydn - Complete Piano Sonatas - Rudolf Buchbinder (10 CD)\CD 1\03 - Sonata 1 in G major - III.Andante - Rudolf Buchbinder.wav
Peak level 51.6 %
Track quality 99.8 %
Copy CRC BBFB0005
Accurately ripped (confidence 5) [09B76C1B]
Copy OK
Track 4
Filename N:\HAYDN, FRANZ JOSEPH\F.J.Haydn - Complete Piano Sonatas - Rudolf Buchbinder (10 CD)\CD 1\04 - Sonata 1 in G major - IV.Allegro - Rudolf Buchbinder.wav
Peak level 52.7 %
Track quality 99.7 %
Copy CRC 91DCFF15
Accurately ripped (confidence 5) [EB12F3CD]
Copy OK
Track 5
Filename N:\HAYDN, FRANZ JOSEPH\F.J.Haydn - Complete Piano Sonatas - Rudolf Buchbinder (10 CD)\CD 1\05 - Sonata 2 in C major - I.Allegro moderato - Rudolf Buchbinder.wav
Pre-gap length 0:00:06.17
Peak level 77.6 %
Track quality 100.0 %
Copy CRC 86DFAA70
Accurately ripped (confidence 5) [36A8FEB5]
Copy OK
Track 6
Filename N:\HAYDN, FRANZ JOSEPH\F.J.Haydn - Complete Piano Sonatas - Rudolf Buchbinder (10 CD)\CD 1\06 - Sonata 2 in C major - II.Menuet - Rudolf Buchbinder.wav
Peak level 59.1 %
Track quality 99.9 %
Copy CRC A3399213
Accurately ripped (confidence 5) [5B4EDF0B]
Copy OK
Track 7
Filename N:\HAYDN, FRANZ JOSEPH\F.J.Haydn - Complete Piano Sonatas - Rudolf Buchbinder (10 CD)\CD 1\07 - Sonata 2 in C major - III.Finale- Allegro - Rudolf Buchbinder.wav
Peak level 81.3 %
Track quality 99.8 %
Copy CRC 18ACBD43
Accurately ripped (confidence 5) [DFD310ED]
Copy OK
Track 8
Filename N:\HAYDN, FRANZ JOSEPH\F.J.Haydn - Complete Piano Sonatas - Rudolf Buchbinder (10 CD)\CD 1\08 - Sonata 3 in F major - I.Allegro - Rudolf Buchbinder.wav
Pre-gap length 0:00:06.50
Peak level 86.0 %
Track quality 100.0 %
Copy CRC 1EC8B155
Accurately ripped (confidence 5) [844153A8]
Copy OK
Track 9
Filename N:\HAYDN, FRANZ JOSEPH\F.J.Haydn - Complete Piano Sonatas - Rudolf Buchbinder (10 CD)\CD 1\09 - Sonata 3 in F major - II.Menuet - Rudolf Buchbinder.wav
Peak level 65.5 %
Track quality 100.0 %
Copy CRC EA65FC67
Accurately ripped (confidence 5) [EAEEB4B0]
Copy OK
Track 10
Filename N:\HAYDN, FRANZ JOSEPH\F.J.Haydn - Complete Piano Sonatas - Rudolf Buchbinder (10 CD)\CD 1\10 - Sonata 3 in F major - III.Scherzo- Allegro - Rudolf Buchbinder.wav
Peak level 63.5 %
Track quality 99.7 %
Copy CRC E4391BBA
Accurately ripped (confidence 5) [0E302F7E]
Copy OK
Track 11
Filename N:\HAYDN, FRANZ JOSEPH\F.J.Haydn - Complete Piano Sonatas - Rudolf Buchbinder (10 CD)\CD 1\11 - Sonata 4 in G major - I.Allegro - Rudolf Buchbinder.wav
Pre-gap length 0:00:06.68
Peak level 63.2 %
Track quality 99.9 %
Copy CRC CD5A3736
Accurately ripped (confidence 5) [FC7C425C]
Copy OK
Track 12
Filename N:\HAYDN, FRANZ JOSEPH\F.J.Haydn - Complete Piano Sonatas - Rudolf Buchbinder (10 CD)\CD 1\12 - Sonata 4 in G major - II.Menuetto - Rudolf Buchbinder.wav
Peak level 62.1 %
Track quality 100.0 %
Copy CRC 3F85A2E1
Accurately ripped (confidence 5) [353E33C1]
Copy OK
Track 13
Filename N:\HAYDN, FRANZ JOSEPH\F.J.Haydn - Complete Piano Sonatas - Rudolf Buchbinder (10 CD)\CD 1\13 - Sonata 4 in G major - III.Finale- Presto - Rudolf Buchbinder.wav
Peak level 78.3 %
Track quality 99.8 %
Copy CRC D2D34F26
Accurately ripped (confidence 5) [B60F2875]
Copy OK
Track 14
Filename N:\HAYDN, FRANZ JOSEPH\F.J.Haydn - Complete Piano Sonatas - Rudolf Buchbinder (10 CD)\CD 1\14 - Sonata 5 in G major - I.Presto - Rudolf Buchbinder.wav
Pre-gap length 0:00:05.20
Peak level 77.8 %
Track quality 100.0 %
Copy CRC BB34BD9D
Accurately ripped (confidence 5) [3E049100]
Copy OK
Track 15
Filename N:\HAYDN, FRANZ JOSEPH\F.J.Haydn - Complete Piano Sonatas - Rudolf Buchbinder (10 CD)\CD 1\15 - Sonata 5 in G major - II.Andante - Rudolf Buchbinder.wav
Peak level 59.4 %
Track quality 100.0 %
Copy CRC F6FEBBB6
Accurately ripped (confidence 5) [C4BC1623]
Copy OK
Track 16
Filename N:\HAYDN, FRANZ JOSEPH\F.J.Haydn - Complete Piano Sonatas - Rudolf Buchbinder (10 CD)\CD 1\16 - Sonata 5 in G major - III.Menuet - Rudolf Buchbinder.wav
Pre-gap length 0:00:01.30
Peak level 68.2 %
Track quality 100.0 %
Copy CRC CA3E2A7C
Accurately ripped (confidence 5) [7BB12539]
Copy OK
Track 17
Filename N:\HAYDN, FRANZ JOSEPH\F.J.Haydn - Complete Piano Sonatas - Rudolf Buchbinder (10 CD)\CD 1\17 - Sonata 6 in C major - I.Moderato - Rudolf Buchbinder.wav
Pre-gap length 0:00:05.42
Peak level 60.1 %
Track quality 99.9 %
Copy CRC 7675664A
Accurately ripped (confidence 5) [6668F719]
Copy OK
Track 18
Filename N:\HAYDN, FRANZ JOSEPH\F.J.Haydn - Complete Piano Sonatas - Rudolf Buchbinder (10 CD)\CD 1\18 - Sonata 6 in C major - II.Menuet - Rudolf Buchbinder.wav
Peak level 55.1 %
Track quality 99.9 %
Copy CRC 1F416428
Accurately ripped (confidence 5) [3218BE06]
Copy OK
Track 19
Filename N:\HAYDN, FRANZ JOSEPH\F.J.Haydn - Complete Piano Sonatas - Rudolf Buchbinder (10 CD)\CD 1\19 - Sonata 6 in C major - III.Finale- Presto - Rudolf Buchbinder.wav
Peak level 96.0 %
Track quality 100.0 %
Copy CRC F734B7DB
Accurately ripped (confidence 5) [2242C52B]
Copy OK
Track 20
Filename N:\HAYDN, FRANZ JOSEPH\F.J.Haydn - Complete Piano Sonatas - Rudolf Buchbinder (10 CD)\CD 1\20 - Sonata 7 in D major - I.Tema, Variationen I-III - Rudolf Buchbinder.wav
Pre-gap length 0:00:06.19
Peak level 59.8 %
Track quality 100.0 %
Copy CRC CB5969C9
Accurately ripped (confidence 5) [2A701CF1]
Copy OK
Track 21
Filename N:\HAYDN, FRANZ JOSEPH\F.J.Haydn - Complete Piano Sonatas - Rudolf Buchbinder (10 CD)\CD 1\21 - Sonata 7 in D major - II.Menuet - Rudolf Buchbinder.wav
Peak level 35.3 %
Track quality 100.0 %
Copy CRC 71D34508
Accurately ripped (confidence 5) [EA5529C3]
Copy OK
Track 22
Filename N:\HAYDN, FRANZ JOSEPH\F.J.Haydn - Complete Piano Sonatas - Rudolf Buchbinder (10 CD)\CD 1\22 - Sonata 7 in D major - III.Finale- Allegro - Rudolf Buchbinder.wav
Peak level 77.9 %
Track quality 100.0 %
Copy CRC 256C73C9
Accurately ripped (confidence 5) [1A7A15C8]
Copy OK
Track 23
Filename N:\HAYDN, FRANZ JOSEPH\F.J.Haydn - Complete Piano Sonatas - Rudolf Buchbinder (10 CD)\CD 1\23 - Sonata 8 in A major - I.Allegro - Rudolf Buchbinder.wav
Pre-gap length 0:00:06.67
Peak level 71.1 %
Track quality 100.0 %
Copy CRC E4985EC8
Accurately ripped (confidence 5) [9320DAE3]
Copy OK
Track 24
Filename N:\HAYDN, FRANZ JOSEPH\F.J.Haydn - Complete Piano Sonatas - Rudolf Buchbinder (10 CD)\CD 1\24 - Sonata 8 in A major - II.Menuet - Rudolf Buchbinder.wav
Peak level 44.3 %
Track quality 100.0 %
Copy CRC 24F2AA3F
Accurately ripped (confidence 5) [CC1539B8]
Copy OK
Track 25
Filename N:\HAYDN, FRANZ JOSEPH\F.J.Haydn - Complete Piano Sonatas - Rudolf Buchbinder (10 CD)\CD 1\25 - Sonata 8 in A major - III.Presto - Rudolf Buchbinder.wav
Peak level 64.8 %
Track quality 100.0 %
Copy CRC E855A12C
Accurately ripped (confidence 5) [86B6E6A9]
Copy OK
Track 26
Filename N:\HAYDN, FRANZ JOSEPH\F.J.Haydn - Complete Piano Sonatas - Rudolf Buchbinder (10 CD)\CD 1\26 - Sonata 9 in D major - I.Moderato - Rudolf Buchbinder.wav
Pre-gap length 0:00:07.02
Peak level 42.3 %
Track quality 100.0 %
Copy CRC 1367B91E
Accurately ripped (confidence 5) [5EECC8C2]
Copy OK
Track 27
Filename N:\HAYDN, FRANZ JOSEPH\F.J.Haydn - Complete Piano Sonatas - Rudolf Buchbinder (10 CD)\CD 1\27 - Sonata 9 in D major - II.Menuet - Rudolf Buchbinder.wav
Peak level 39.8 %
Track quality 100.0 %
Copy CRC BF58374B
Accurately ripped (confidence 5) [68A47EA3]
Copy OK
Track 28
Filename N:\HAYDN, FRANZ JOSEPH\F.J.Haydn - Complete Piano Sonatas - Rudolf Buchbinder (10 CD)\CD 1\28 - Sonata 10 in C major - I.Allegro - Rudolf Buchbinder.wav
Pre-gap length 0:00:06.16
Peak level 62.7 %
Track quality 100.0 %
Copy CRC 19073809
Accurately ripped (confidence 5) [275F4A43]
Copy OK
Track 29
Filename N:\HAYDN, FRANZ JOSEPH\F.J.Haydn - Complete Piano Sonatas - Rudolf Buchbinder (10 CD)\CD 1\29 - Sonata 10 in C major - II.Adagio - Rudolf Buchbinder.wav
Peak level 50.7 %
Track quality 100.0 %
Copy CRC 5633AF46
Accurately ripped (confidence 5) [5CD5FF14]
Copy OK
Track 30
Filename N:\HAYDN, FRANZ JOSEPH\F.J.Haydn - Complete Piano Sonatas - Rudolf Buchbinder (10 CD)\CD 1\30 - Sonata 10 in C major - III.Menuet - Rudolf Buchbinder.wav
Peak level 39.7 %
Track quality 100.0 %
Copy CRC 0FC094B7
Accurately ripped (confidence 5) [20159048]
Copy OK
29 track(s) accurately ripped
1 track(s) could not be verified as accurate
Some tracks could not be verified as accurate
No errors occurred
End of status report
Exact Audio Copy V0.99 prebeta 4 from 23. January 2008
EAC extraction logfile from 28. September 2010, 18:20
Rudolf Buchbinder / F.J.Haydn - Complete Piano Sonatas CD2
Used drive : PIONEER DVD-RW DVR-112D Adapter: 0 ID: 0
Read mode : Secure
Utilize accurate stream : Yes
Defeat audio cache : Yes
Make use of C2 pointers : No
Read offset correction : 48
Overread into Lead-In and Lead-Out : No
Fill up missing offset samples with silence : Yes
Delete leading and trailing silent blocks : No
Null samples used in CRC calculations : Yes
Used interface : Native Win32 interface for Win NT & 2000
Gap handling : Appended to previous track
Used output format : User Defined Encoder
Selected bitrate : 768 kBit/s
Quality : High
Add ID3 tag : No
Command line compressor : C:\Program Files\Exact Audio Copy\FLAC\FLAC.EXE
Additional command line options : -6 -V -T "ARTIST=%a" -T "TITLE=%t" -T "ALBUM=%g" -T "DATE=%y" -T "TRACKNUMBER=%n" -T "GENRE=%m" -T "COMMENT=%e" %s -o %d
TOC of the extracted CD
Track | Start | Length | Start sector | End sector
––––––––––––––––––––––––––––-
1 | 0:00.00 | 5:33.15 | 0 | 24989
2 | 5:33.15 | 5:05.30 | 24990 | 47894
3 | 10:38.45 | 3:34.42 | 47895 | 63986
4 | 14:13.12 | 2:13.60 | 63987 | 74021
5 | 16:26.72 | 2:58.20 | 74022 | 87391
6 | 19:25.17 | 1:49.58 | 87392 | 95624
7 | 21:15.00 | 5:55.70 | 95625 | 122319
8 | 27:10.70 | 3:49.57 | 122320 | 139551
9 | 31:00.52 | 4:39.63 | 139552 | 160539
10 | 35:40.40 | 2:32.47 | 160540 | 171986
11 | 38:13.12 | 2:29.30 | 171987 | 183191
12 | 40:42.42 | 3:29.63 | 183192 | 198929
13 | 44:12.30 | 3:02.45 | 198930 | 212624
14 | 47:15.00 | 3:22.47 | 212625 | 227821
15 | 50:37.47 | 2:49.15 | 227822 | 240511
16 | 53:26.62 | 2:11.00 | 240512 | 250336
17 | 55:37.62 | 4:48.30 | 250337 | 271966
18 | 60:26.17 | 3:37.00 | 271967 | 288241
19 | 64:03.17 | 3:12.34 | 288242 | 302675
Track 1
Filename N:\HAYDN, FRANZ JOSEPH\F.J.Haydn - Complete Piano Sonatas - Rudolf Buchbinder (10 CD)\CD 2\01 - Sonate Nr.11 B-dur - I.Moderato - Rudolf Buchbinder.wav
Pre-gap length 0:00:02.00
Peak level 55.8 %
Track quality 100.0 %
Copy CRC 6C3BBD78
Accurately ripped (confidence 5) [72485BAE]
Copy OK
Track 2
Filename N:\HAYDN, FRANZ JOSEPH\F.J.Haydn - Complete Piano Sonatas - Rudolf Buchbinder (10 CD)\CD 2\02 - Sonate Nr.11 B-dur - II.Largo - Rudolf Buchbinder.wav
Pre-gap length 0:00:01.43
Peak level 54.4 %
Track quality 100.0 %
Copy CRC 33F47090
Accurately ripped (confidence 5) [69E6CDD7]
Copy OK
Track 3
Filename N:\HAYDN, FRANZ JOSEPH\F.J.Haydn - Complete Piano Sonatas - Rudolf Buchbinder (10 CD)\CD 2\03 - Sonate Nr.11 B-dur - III.Menuet - Rudolf Buchbinder.wav
Pre-gap length 0:00:01.15
Peak level 49.1 %
Track quality 99.8 %
Copy CRC 04570EF2
Accurately ripped (confidence 5) [6D9B3709]
Copy OK
Track 4
Filename N:\HAYDN, FRANZ JOSEPH\F.J.Haydn - Complete Piano Sonatas - Rudolf Buchbinder (10 CD)\CD 2\04 - Sonate Nr.12 A-dur - I.Andante - Rudolf Buchbinder.wav
Pre-gap length 0:00:06.50
Peak level 62.0 %
Track quality 99.9 %
Copy CRC BB343420
Accurately ripped (confidence 5) [04A8CE2D]
Copy OK
Track 5
Filename N:\HAYDN, FRANZ JOSEPH\F.J.Haydn - Complete Piano Sonatas - Rudolf Buchbinder (10 CD)\CD 2\05 - Sonate Nr.12 A-dur - II.Menuet - Rudolf Buchbinder.wav
Peak level 60.7 %
Track quality 99.9 %
Copy CRC 8C15B474
Accurately ripped (confidence 5) [D9A74F2E]
Copy OK
Track 6
Filename N:\HAYDN, FRANZ JOSEPH\F.J.Haydn - Complete Piano Sonatas - Rudolf Buchbinder (10 CD)\CD 2\06 - Sonate Nr.12 A-dur - III.Finale- Allegro molto - Rudolf Buchbinder.wav
Peak level 69.5 %
Track quality 99.9 %
Copy CRC 34D9F0CD
Accurately ripped (confidence 5) [442EAFAF]
Copy OK
Track 7
Filename N:\HAYDN, FRANZ JOSEPH\F.J.Haydn - Complete Piano Sonatas - Rudolf Buchbinder (10 CD)\CD 2\07 - Sonate Nr.13 G-dur - I.Allegro - Rudolf Buchbinder.wav
Pre-gap length 0:00:06.50
Peak level 72.1 %
Track quality 100.0 %
Copy CRC 60F572DE
Accurately ripped (confidence 5) [3BDAFAF4]
Copy OK
Track 8
Filename N:\HAYDN, FRANZ JOSEPH\F.J.Haydn - Complete Piano Sonatas - Rudolf Buchbinder (10 CD)\CD 2\08 - Sonate Nr.13 G-dur - II.Menuet - Rudolf Buchbinder.wav
Pre-gap length 0:00:01.00
Peak level 66.7 %
Track quality 99.9 %
Copy CRC F1DEA554
Accurately ripped (confidence 5) [569EE547]
Copy OK
Track 9
Filename N:\HAYDN, FRANZ JOSEPH\F.J.Haydn - Complete Piano Sonatas - Rudolf Buchbinder (10 CD)\CD 2\09 - Sonate Nr.13 G-dur - III.Adagio - Rudolf Buchbinder.wav
Pre-gap length 0:00:01.00
Peak level 60.8 %
Track quality 100.0 %
Copy CRC 16058522
Accurately ripped (confidence 5) [1B68B04B]
Copy OK
Track 10
Filename N:\HAYDN, FRANZ JOSEPH\F.J.Haydn - Complete Piano Sonatas - Rudolf Buchbinder (10 CD)\CD 2\10 - Sonate Nr.13 G-dur - IV.Finale- Allegro molto - Rudolf Buchbinder.wav
Pre-gap length 0:00:02.57
Peak level 86.9 %
Track quality 100.0 %
Copy CRC A758201C
Accurately ripped (confidence 5) [3B79911C]
Copy OK
Track 11
Filename N:\HAYDN, FRANZ JOSEPH\F.J.Haydn - Complete Piano Sonatas - Rudolf Buchbinder (10 CD)\CD 2\11 - Sonate Nr.14 C-dur - I.Allegretto - Rudolf Buchbinder.wav
Pre-gap length 0:00:07.00
Peak level 56.7 %
Track quality 99.9 %
Copy CRC 8B606FFF
Accurately ripped (confidence 5) [1A3BBF06]
Copy OK
Track 12
Filename N:\HAYDN, FRANZ JOSEPH\F.J.Haydn - Complete Piano Sonatas - Rudolf Buchbinder (10 CD)\CD 2\12 - Sonate Nr.14 C-dur - II.Andante - Rudolf Buchbinder.wav
Peak level 54.1 %
Track quality 99.9 %
Copy CRC 0279B849
Accurately ripped (confidence 5) [6960CBCE]
Copy OK
Track 13
Filename N:\HAYDN, FRANZ JOSEPH\F.J.Haydn - Complete Piano Sonatas - Rudolf Buchbinder (10 CD)\CD 2\13 - Sonate Nr.14 C-dur - III.Menuet - Rudolf Buchbinder.wav
Pre-gap length 0:00:01.35
Peak level 55.7 %
Track quality 99.9 %
Copy CRC E29656CB
Accurately ripped (confidence 5) [6F2BBECD]
Copy OK
Track 14
Filename N:\HAYDN, FRANZ JOSEPH\F.J.Haydn - Complete Piano Sonatas - Rudolf Buchbinder (10 CD)\CD 2\14 - Sonate Nr.15 E-dur - I.Moderato - Rudolf Buchbinder.wav
Pre-gap length 0:00:06.72
Peak level 61.3 %
Track quality 100.0 %
Copy CRC E61C5FAF
Accurately ripped (confidence 5) [5B2C9DE7]
Copy OK
Track 15
Filename N:\HAYDN, FRANZ JOSEPH\F.J.Haydn - Complete Piano Sonatas - Rudolf Buchbinder (10 CD)\CD 2\15 - Sonate Nr.15 E-dur - II.Menuet - Rudolf Buchbinder.wav
Peak level 43.0 %
Track quality 100.0 %
Copy CRC D20F0096
Accurately ripped (confidence 5) [325EC97C]
Copy OK
Track 16
Filename N:\HAYDN, FRANZ JOSEPH\F.J.Haydn - Complete Piano Sonatas - Rudolf Buchbinder (10 CD)\CD 2\16 - Sonate Nr.15 E-dur - III.Finale- Presto - Rudolf Buchbinder.wav
Peak level 74.5 %
Track quality 100.0 %
Copy CRC EEE332DB
Accurately ripped (confidence 5) [23E9DA92]
Copy OK
Track 17
Filename N:\HAYDN, FRANZ JOSEPH\F.J.Haydn - Complete Piano Sonatas - Rudolf Buchbinder (10 CD)\CD 2\17 - Sonate Nr.16 D-dur - I.Allegretto moderato - Rudolf Buchbinder.wav
Pre-gap length 0:00:07.17
Peak level 54.8 %
Track quality 100.0 %
Copy CRC F07B05B6
Accurately ripped (confidence 5) [2A1E0E42]
Copy OK
Track 18
Filename N:\HAYDN, FRANZ JOSEPH\F.J.Haydn - Complete Piano Sonatas - Rudolf Buchbinder (10 CD)\CD 2\18 - Sonate Nr.16 D-dur - II.Menuet - Rudolf Buchbinder.wav
Pre-gap length 0:00:01.62
Peak level 73.8 %
Track quality 100.0 %
Copy CRC 12EA837D
Accurately ripped (confidence 5) [E8DCBE1B]
Copy OK
Track 19
Filename N:\HAYDN, FRANZ JOSEPH\F.J.Haydn - Complete Piano Sonatas - Rudolf Buchbinder (10 CD)\CD 2\19 - Sonate Nr.16 D-dur - III.Finale- Allegro - Rudolf Buchbinder.wav
Peak level 62.3 %
Track quality 100.0 %
Copy CRC 5B5AEDFA
Accurately ripped (confidence 5) [55D9643E]
Copy OK
All tracks accurately ripped
No errors occurred
End of status report
Exact Audio Copy V0.99 prebeta 4 from 23. January 2008
EAC extraction logfile from 28. September 2010, 18:52
Rudolf Buchbinder / F.J.Haydn - Complete Piano Sonatas CD3
Used drive : PIONEER DVD-RW DVR-112D Adapter: 0 ID: 0
Read mode : Secure
Utilize accurate stream : Yes
Defeat audio cache : Yes
Make use of C2 pointers : No
Read offset correction : 48
Overread into Lead-In and Lead-Out : No
Fill up missing offset samples with silence : Yes
Delete leading and trailing silent blocks : No
Null samples used in CRC calculations : Yes
Used interface : Native Win32 interface for Win NT & 2000
Gap handling : Appended to previous track
Used output format : User Defined Encoder
Selected bitrate : 768 kBit/s
Quality : High
Add ID3 tag : No
Command line compressor : C:\Program Files\Exact Audio Copy\FLAC\FLAC.EXE
Additional command line options : -6 -V -T "ARTIST=%a" -T "TITLE=%t" -T "ALBUM=%g" -T "DATE=%y" -T "TRACKNUMBER=%n" -T "GENRE=%m" -T "COMMENT=%e" %s -o %d
TOC of the extracted CD
Track | Start | Length | Start sector | End sector
––––––––––––––––––––––––––––-
1 | 0:00.00 | 5:55.52 | 0 | 26676
2 | 5:55.52 | 5:28.63 | 26677 | 51339
3 | 11:24.40 | 3:04.60 | 51340 | 65199
4 | 14:29.25 | 5:58.72 | 65200 | 92121
5 | 20:28.22 | 3:41.38 | 92122 | 108734
6 | 24:09.60 | 3:07.30 | 108735 | 122789
7 | 27:17.15 | 5:36.50 | 122790 | 148039
8 | 32:53.65 | 3:15.62 | 148040 | 162726
9 | 36:09.52 | 3:19.70 | 162727 | 177721
10 | 39:29.47 | 4:37.43 | 177722 | 198539
11 | 44:07.15 | 4:51.62 | 198540 | 220426
12 | 48:59.02 | 7:04.03 | 220427 | 252229
13 | 56:03.05 | 5:39.20 | 252230 | 277674
14 | 61:42.25 | 3:19.65 | 277675 | 292664
Track 1
Filename N:\HAYDN, FRANZ JOSEPH\F.J.Haydn - Complete Piano Sonatas - Rudolf Buchbinder (10 CD)\CD 3\01 - Sonata No.17 in E flat major - I.Moderato - Rudolf Buchbinder.wav
Pre-gap length 0:00:02.00
Peak level 63.0 %
Track quality 100.0 %
Copy CRC 820EA8CA
Accurately ripped (confidence 5) [D98A6792]
Copy OK
Track 2
Filename N:\HAYDN, FRANZ JOSEPH\F.J.Haydn - Complete Piano Sonatas - Rudolf Buchbinder (10 CD)\CD 3\02 - Sonata No.17 in E flat major - II.Andante - Rudolf Buchbinder.wav
Peak level 53.0 %
Track quality 99.9 %
Copy CRC 0513C59D
Accurately ripped (confidence 5) [988BD382]
Copy OK
Track 3
Filename N:\HAYDN, FRANZ JOSEPH\F.J.Haydn - Complete Piano Sonatas - Rudolf Buchbinder (10 CD)\CD 3\03 - Sonata No.17 in E flat major - III.Menuetto - Rudolf Buchbinder.wav
Pre-gap length 0:00:01.45
Peak level 55.3 %
Track quality 100.0 %
Copy CRC E8C913D7
Accurately ripped (confidence 5) [2AB7A2B8]
Copy OK
Track 4
Filename N:\HAYDN, FRANZ JOSEPH\F.J.Haydn - Complete Piano Sonatas - Rudolf Buchbinder (10 CD)\CD 3\04 - Sonata No.18 in E flat major - I.(Allegro moderato) - Rudolf Buchbinder.wav
Pre-gap length 0:00:06.60
Peak level 88.7 %
Track quality 99.9 %
Copy CRC 92DC77CF
Accurately ripped (confidence 5) [7AFE76A1]
Copy OK
Track 5
Filename N:\HAYDN, FRANZ JOSEPH\F.J.Haydn - Complete Piano Sonatas - Rudolf Buchbinder (10 CD)\CD 3\05 - Sonata No.18 in E flat major - II.Menuetto - Rudolf Buchbinder.wav
Pre-gap length 0:00:01.22
Peak level 53.5 %
Track quality 99.9 %
Copy CRC FDF0D6F5
Accurately ripped (confidence 5) [1B03B5F2]
Copy OK
Track 6
Filename N:\HAYDN, FRANZ JOSEPH\F.J.Haydn - Complete Piano Sonatas - Rudolf Buchbinder (10 CD)\CD 3\06 - Sonata No.18 in E flat major - III. Finale- Allegro assai - Rudolf Buchbinder.wav
Peak level 61.2 %
Track quality 100.0 %
Copy CRC BA7D10F5
Accurately ripped (confidence 5) [4AD4BF22]
Copy OK
Track 7
Filename N:\HAYDN, FRANZ JOSEPH\F.J.Haydn - Complete Piano Sonatas - Rudolf Buchbinder (10 CD)\CD 3\07 - Sonata No.19 in E minor - I.Adagio - Rudolf Buchbinder.wav
Pre-gap length 0:00:07.00
Peak level 89.6 %
Track quality 99.9 %
Copy CRC B170CE2C
Accurately ripped (confidence 5) [4D8F734F]
Copy OK
Track 8
Filename N:\HAYDN, FRANZ JOSEPH\F.J.Haydn - Complete Piano Sonatas - Rudolf Buchbinder (10 CD)\CD 3\08 - Sonata No.19 in E minor - II.Allegro - Rudolf Buchbinder.wav
Peak level 83.3 %
Track quality 100.0 %
Copy CRC 58D9EE06
Accurately ripped (confidence 5) [396CBF84]
Copy OK
Track 9
Filename N:\HAYDN, FRANZ JOSEPH\F.J.Haydn - Complete Piano Sonatas - Rudolf Buchbinder (10 CD)\CD 3\09 - Sonata No.19 in E minor - III.Finale-Tempo di menuet - Rudolf Buchbinder.wav
Peak level 74.3 %
Track quality 100.0 %
Copy CRC 5B0C6A26
Accurately ripped (confidence 5) [4B33C88E]
Copy OK
Track 10
Filename N:\HAYDN, FRANZ JOSEPH\F.J.Haydn - Complete Piano Sonatas - Rudolf Buchbinder (10 CD)\CD 3\10 - Sonata No.20 in B flat major - I.Allegro moderato - Rudolf Buchbinder.wav
Pre-gap length 0:00:07.30
Peak level 84.3 %
Track quality 100.0 %
Copy CRC EBD0403D
Accurately ripped (confidence 5) [06B0A96B]
Copy OK
Track 11
Filename N:\HAYDN, FRANZ JOSEPH\F.J.Haydn - Complete Piano Sonatas - Rudolf Buchbinder (10 CD)\CD 3\11 - Sonata No.20 in B flat major - II.Moderato - Rudolf Buchbinder.wav
Pre-gap length 0:00:01.55
Peak level 53.7 %
Track quality 100.0 %
Copy CRC 4F4BEC9C
Accurately ripped (confidence 5) [945D838B]
Copy OK
Track 12
Filename N:\HAYDN, FRANZ JOSEPH\F.J.Haydn - Complete Piano Sonatas - Rudolf Buchbinder (10 CD)\CD 3\12 - Sonata No.29 in E flat major - I.Moderato - Rudolf Buchbinder.wav
Pre-gap length 0:00:06.32
Peak level 68.0 %
Track quality 99.9 %
Copy CRC EA293BF2
Accurately ripped (confidence 5) [F3C32647]
Copy OK
Track 13
Filename N:\HAYDN, FRANZ JOSEPH\F.J.Haydn - Complete Piano Sonatas - Rudolf Buchbinder (10 CD)\CD 3\13 - Sonata No.29 in E flat major - II.Andante - Rudolf Buchbinder.wav
Pre-gap length 0:00:01.35
Peak level 80.4 %
Track quality 100.0 %
Copy CRC 58E9306E
Accurately ripped (confidence 5) [E610908C]
Copy OK
Track 14
Filename N:\HAYDN, FRANZ JOSEPH\F.J.Haydn - Complete Piano Sonatas - Rudolf Buchbinder (10 CD)\CD 3\14 - Sonata No.29 in E flat major - III.Finale- Allegro di molto - Rudolf Buchbinder.wav
Pre-gap length 0:00:01.20
Peak level 82.1 %
Track quality 100.0 %
Copy CRC CBD307A3
Accurately ripped (confidence 5) [C8422807]
Copy OK
All tracks accurately ripped
No errors occurred
End of status report
Exact Audio Copy V0.99 prebeta 4 from 23. January 2008
EAC extraction logfile from 28. September 2010, 19:41
Rudolf Buchbinder / F.J.Haydn - Complete Piano Sonatas CD4
Used drive : PIONEER DVD-RW DVR-112D Adapter: 0 ID: 0
Read mode : Secure
Utilize accurate stream : Yes
Defeat audio cache : Yes
Make use of C2 pointers : No
Read offset correction : 48
Overread into Lead-In and Lead-Out : No
Fill up missing offset samples with silence : Yes
Delete leading and trailing silent blocks : No
Null samples used in CRC calculations : Yes
Used interface : Native Win32 interface for Win NT & 2000
Gap handling : Appended to previous track
Used output format : User Defined Encoder
Selected bitrate : 768 kBit/s
Quality : High
Add ID3 tag : No
Command line compressor : C:\Program Files\Exact Audio Copy\FLAC\FLAC.EXE
Additional command line options : -6 -V -T "ARTIST=%a" -T "TITLE=%t" -T "ALBUM=%g" -T "DATE=%y" -T "TRACKNUMBER=%n" -T "GENRE=%m" -T "COMMENT=%e" %s -o %d
TOC of the extracted CD
Track | Start | Length | Start sector | End sector
––––––––––––––––––––––––––––-
1 | 0:00.00 | 7:03.40 | 0 | 31764
2 | 7:03.40 | 6:49.05 | 31765 | 62444
3 | 13:52.45 | 3:03.55 | 62445 | 76224
4 | 16:56.25 | 7:55.37 | 76225 | 111886
5 | 24:51.62 | 5:56.28 | 111887 | 138614
6 | 30:48.15 | 2:35.65 | 138615 | 150304
7 | 33:24.05 | 6:07.47 | 150305 | 177876
8 | 39:31.52 | 3:27.48 | 177877 | 193449
9 | 42:59.25 | 7:11.57 | 193450 | 225831
10 | 50:11.07 | 6:27.65 | 225832 | 254921
11 | 56:38.72 | 3:48.43 | 254922 | 272064
12 | 60:27.40 | 6:03.12 | 272065 | 299301
13 | 66:30.52 | 7:53.08 | 299302 | 334784
Track 1
Filename N:\HAYDN, FRANZ JOSEPH\F.J.Haydn - Complete Piano Sonatas - Rudolf Buchbinder (10 CD)\CD 4\01 - Sonata No.30 in D major - I.Moderato - Rudolf Buchbinder.wav
Pre-gap length 0:00:02.00
Peak level 74.7 %
Track quality 99.9 %
Copy CRC 09E95092
Accurately ripped (confidence 5) [669CD45B]
Copy OK
Track 2
Filename N:\HAYDN, FRANZ JOSEPH\F.J.Haydn - Complete Piano Sonatas - Rudolf Buchbinder (10 CD)\CD 4\02 - Sonata No.30 in D major - II.Andante - Rudolf Buchbinder.wav
Pre-gap length 0:00:01.25
Peak level 60.7 %
Track quality 99.9 %
Copy CRC 46094647
Accurately ripped (confidence 5) [F301B6AE]
Copy OK
Track 3
Filename N:\HAYDN, FRANZ JOSEPH\F.J.Haydn - Complete Piano Sonatas - Rudolf Buchbinder (10 CD)\CD 4\03 - Sonata No.30 in D major - III.Finale- Allegro assai - Rudolf Buchbinder.wav
Pre-gap length 0:00:01.35
Peak level 83.5 %
Track quality 100.0 %
Copy CRC E9E2A40D
Accurately ripped (confidence 5) [FF17C1CB]
Copy OK
Track 4
Filename N:\HAYDN, FRANZ JOSEPH\F.J.Haydn - Complete Piano Sonatas - Rudolf Buchbinder (10 CD)\CD 4\04 - Sonata No.31 in A flat major - I.Allegro moderato - Rudolf Buchbinder.wav
Pre-gap length 0:00:06.18
Peak level 95.9 %
Track quality 99.9 %
Copy CRC AD6C9D76
Accurately ripped (confidence 5) [8B40B44F]
Copy OK
Track 5
Filename N:\HAYDN, FRANZ JOSEPH\F.J.Haydn - Complete Piano Sonatas - Rudolf Buchbinder (10 CD)\CD 4\05 - Sonata No.31 in A flat major - II.Adagio - Rudolf Buchbinder.wav
Pre-gap length 0:00:02.12
Peak level 83.1 %
Track quality 99.9 %
Copy CRC FD99A2B8
Accurately ripped (confidence 5) [E29F3646]
Copy OK
Track 6
Filename N:\HAYDN, FRANZ JOSEPH\F.J.Haydn - Complete Piano Sonatas - Rudolf Buchbinder (10 CD)\CD 4\06 - Sonata No.31 in A flat major - III.Finale- Presto - Rudolf Buchbinder.wav
Peak level 81.2 %
Track quality 100.0 %
Copy CRC 5C9150D0
Accurately ripped (confidence 5) [CA84C5F8]
Copy OK
Track 7
Filename N:\HAYDN, FRANZ JOSEPH\F.J.Haydn - Complete Piano Sonatas - Rudolf Buchbinder (10 CD)\CD 4\07 - Sonata No.32 in G minor - I.Moderato - Rudolf Buchbinder.wav
Pre-gap length 0:00:05.48
Peak level 71.5 %
Track quality 100.0 %
Copy CRC CC2F8F94
Accurately ripped (confidence 5) [01118FFA]
Copy OK
Track 8
Filename N:\HAYDN, FRANZ JOSEPH\F.J.Haydn - Complete Piano Sonatas - Rudolf Buchbinder (10 CD)\CD 4\08 - Sonata No.32 in G minor - II.Allegretto - Rudolf Buchbinder.wav
Peak level 72.6 %
Track quality 100.0 %
Copy CRC 083F5F5B
Accurately ripped (confidence 5) [06E4CE4B]
Copy OK
Track 9
Filename N:\HAYDN, FRANZ JOSEPH\F.J.Haydn - Complete Piano Sonatas - Rudolf Buchbinder (10 CD)\CD 4\09 - Sonata No.33 in C minor - I.Moderato - Rudolf Buchbinder.wav
Pre-gap length 0:00:05.48
Peak level 77.8 %
Track quality 100.0 %
Copy CRC 94E52216
Accurately ripped (confidence 5) [E51A08DC]
Copy OK
Track 10
Filename N:\HAYDN, FRANZ JOSEPH\F.J.Haydn - Complete Piano Sonatas - Rudolf Buchbinder (10 CD)\CD 4\10 - Sonata No.33 in C minor - II.Andante con moto - Rudolf Buchbinder.wav
Pre-gap length 0:00:02.15
Peak level 72.2 %
Track quality 99.9 %
Copy CRC 06211C79
Accurately ripped (confidence 5) [C1010DAC]
Copy OK
Track 11
Filename N:\HAYDN, FRANZ JOSEPH\F.J.Haydn - Complete Piano Sonatas - Rudolf Buchbinder (10 CD)\CD 4\11 - Sonata No.33 in C minor - III.Finale- Allegro - Rudolf Buchbinder.wav
Pre-gap length 0:00:01.55
Peak level 93.8 %
Track quality 100.0 %
Copy CRC 26F20D56
Accurately ripped (confidence 5) [EEA29CAD]
Copy OK
Track 12
Filename N:\HAYDN, FRANZ JOSEPH\F.J.Haydn - Complete Piano Sonatas - Rudolf Buchbinder (10 CD)\CD 4\12 - Sonata No.34 in D major - I.Allegro - Rudolf Buchbinder.wav
Pre-gap length 0:00:06.18
Peak level 82.4 %
Track quality 100.0 %
Copy CRC 91C30B94
Accurately ripped (confidence 5) [E2BA316F]
Copy OK
Track 13
Filename N:\HAYDN, FRANZ JOSEPH\F.J.Haydn - Complete Piano Sonatas - Rudolf Buchbinder (10 CD)\CD 4\13 - Sonata No.34 in D major - II.Adagio - III.Tempo di menuet - Rudolf Buchbinder.wav
Pre-gap length 0:00:03.20
Peak level 60.4 %
Track quality 100.0 %
Copy CRC BBDC0489
Accurately ripped (confidence 5) [0F36B14D]
Copy OK
All tracks accurately ripped
No errors occurred
End of status report
Exact Audio Copy V0.99 prebeta 4 from 23. January 2008
EAC extraction logfile from 28. September 2010, 20:08
Rudolf Buchbinder / F.J.Haydn - Complete Piano Sonatas CD5
Used drive : PIONEER DVD-RW DVR-112D Adapter: 0 ID: 0
Read mode : Secure
Utilize accurate stream : Yes
Defeat audio cache : Yes
Make use of C2 pointers : No
Read offset correction : 48
Overread into Lead-In and Lead-Out : No
Fill up missing offset samples with silence : Yes
Delete leading and trailing silent blocks : No
Null samples used in CRC calculations : Yes
Used interface : Native Win32 interface for Win NT & 2000
Gap handling : Appended to previous track
Used output format : User Defined Encoder
Selected bitrate : 768 kBit/s
Quality : High
Add ID3 tag : No
Command line compressor : C:\Program Files\Exact Audio Copy\FLAC\FLAC.EXE
Additional command line options : -6 -V -T "ARTIST=%a" -T "TITLE=%t" -T "ALBUM=%g" -T "DATE=%y" -T "TRACKNUMBER=%n" -T "GENRE=%m" -T "COMMENT=%e" %s -o %d
TOC of the extracted CD
Track | Start | Length | Start sector | End sector
––––––––––––––––––––––––––––-
1 | 0:00.00 | 5:52.60 | 0 | 26459
2 | 5:52.60 | 2:11.15 | 26460 | 36299
3 | 8:04.00 | 4:37.40 | 36300 | 57114
4 | 12:41.40 | 5:50.05 | 57115 | 83369
5 | 18:31.45 | 4:25.00 | 83370 | 103244
6 | 22:56.45 | 2:47.62 | 103245 | 115831
7 | 25:44.32 | 5:21.03 | 115832 | 139909
8 | 31:05.35 | 4:03.17 | 139910 | 158151
9 | 35:08.52 | 3:36.60 | 158152 | 174411
10 | 38:45.37 | 4:52.70 | 174412 | 196381
11 | 43:38.32 | 4:55.08 | 196382 | 218514
12 | 48:33.40 | 2:18.22 | 218515 | 228886
13 | 50:51.62 | 4:41.53 | 228887 | 250014
14 | 55:33.40 | 5:43.10 | 250015 | 275749
15 | 61:16.50 | 5:39.25 | 275750 | 301199
16 | 66:56.00 | 2:05.42 | 301200 | 310616
Track 1
Filename N:\HAYDN, FRANZ JOSEPH\F.J.Haydn - Complete Piano Sonatas - Rudolf Buchbinder (10 CD)\CD 5\01 - Sonate Nr.35 As-dur - I.Moderato - Rudolf Buchbinder.wav
Pre-gap length 0:00:02.00
Peak level 84.9 %
Track quality 100.0 %
Copy CRC 7DAD7619
Accurately ripped (confidence 4) [02745267]
Copy OK
Track 2
Filename N:\HAYDN, FRANZ JOSEPH\F.J.Haydn - Complete Piano Sonatas - Rudolf Buchbinder (10 CD)\CD 5\02 - Sonate Nr.35 As-dur - II.Menuetto - Rudolf Buchbinder.wav
Pre-gap length 0:00:01.60
Peak level 54.7 %
Track quality 99.9 %
Copy CRC 4E2D183B
Accurately ripped (confidence 4) [0C0A265A]
Copy OK
Track 3
Filename N:\HAYDN, FRANZ JOSEPH\F.J.Haydn - Complete Piano Sonatas - Rudolf Buchbinder (10 CD)\CD 5\03 - Sonate Nr.35 As-dur - III.Rondo- Presto - Rudolf Buchbinder.wav
Peak level 83.4 %
Track quality 100.0 %
Copy CRC 5F3BF0EE
Accurately ripped (confidence 4) [9853D6B3]
Copy OK
Track 4
Filename N:\HAYDN, FRANZ JOSEPH\F.J.Haydn - Complete Piano Sonatas - Rudolf Buchbinder (10 CD)\CD 5\04 - Sonate Nr.36 C-dur - I.Allegro - Rudolf Buchbinder.wav
Pre-gap length 0:00:05.53
Peak level 85.5 %
Track quality 100.0 %
Copy CRC 05DF1E75
Accurately ripped (confidence 4) [EE7AB3D0]
Copy OK
Track 5
Filename N:\HAYDN, FRANZ JOSEPH\F.J.Haydn - Complete Piano Sonatas - Rudolf Buchbinder (10 CD)\CD 5\05 - Sonate Nr.36 C-dur - II.Adagio - Rudolf Buchbinder.wav
Pre-gap length 0:00:01.68
Peak level 54.2 %
Track quality 99.8 %
Copy CRC AC14ADA4
Accurately ripped (confidence 4) [35160DF9]
Copy OK
Track 6
Filename N:\HAYDN, FRANZ JOSEPH\F.J.Haydn - Complete Piano Sonatas - Rudolf Buchbinder (10 CD)\CD 5\06 - Sonate Nr.36 C-dur - III.Finale- Presto - Rudolf Buchbinder.wav
Pre-gap length 0:00:01.73
Peak level 59.1 %
Track quality 100.0 %
Copy CRC 8A3F7D17
Accurately ripped (confidence 4) [115A4C00]
Copy OK
Track 7
Filename N:\HAYDN, FRANZ JOSEPH\F.J.Haydn - Complete Piano Sonatas - Rudolf Buchbinder (10 CD)\CD 5\07 - Sonate Nr.37 E-dur - I.Allegro moderato - Rudolf Buchbinder.wav
Pre-gap length 0:00:06.22
Peak level 88.9 %
Track quality 99.8 %
Copy CRC 7A25C269
Accurately ripped (confidence 4) [B757B1E5]
Copy OK
Track 8
Filename N:\HAYDN, FRANZ JOSEPH\F.J.Haydn - Complete Piano Sonatas - Rudolf Buchbinder (10 CD)\CD 5\08 - Sonate Nr.37 E-dur - II.Andante - Rudolf Buchbinder.wav
Peak level 50.6 %
Track quality 100.0 %
Copy CRC 4A51DB5C
Accurately ripped (confidence 4) [058DA6E9]
Copy OK
Track 9
Filename N:\HAYDN, FRANZ JOSEPH\F.J.Haydn - Complete Piano Sonatas - Rudolf Buchbinder (10 CD)\CD 5\09 - Sonate Nr.37 E-dur - III.Finale- Tempo di Menuet - Rudolf Buchbinder.wav
Pre-gap length 0:00:02.20
Peak level 67.9 %
Track quality 99.9 %
Copy CRC 11DDC3CD
Accurately ripped (confidence 4) [75764092]
Copy OK
Track 10
Filename N:\HAYDN, FRANZ JOSEPH\F.J.Haydn - Complete Piano Sonatas - Rudolf Buchbinder (10 CD)\CD 5\10 - Sonate Nr.38 F-dur - I.(Moderato) - Rudolf Buchbinder.wav
Pre-gap length 0:00:06.35
Peak level 74.9 %
Track quality 100.0 %
Copy CRC 3A3DA092
Accurately ripped (confidence 4) [6D02143A]
Copy OK
Track 11
Filename N:\HAYDN, FRANZ JOSEPH\F.J.Haydn - Complete Piano Sonatas - Rudolf Buchbinder (10 CD)\CD 5\11 - Sonate Nr.38 F-dur - II.Adagio - Rudolf Buchbinder.wav
Pre-gap length 0:00:01.02
Peak level 29.8 %
Track quality 100.0 %
Copy CRC 79164A67
Accurately ripped (confidence 4) [F02E8ECD]
Copy OK
Track 12
Filename N:\HAYDN, FRANZ JOSEPH\F.J.Haydn - Complete Piano Sonatas - Rudolf Buchbinder (10 CD)\CD 5\12 - Sonate Nr.38 F-dur - III.Finale- Presto - Rudolf Buchbinder.wav
Pre-gap length 0:00:01.53
Peak level 69.7 %
Track quality 100.0 %
Copy CRC C0789EF1
Accurately ripped (confidence 4) [7B2F5F18]
Copy OK
Track 13
Filename N:\HAYDN, FRANZ JOSEPH\F.J.Haydn - Complete Piano Sonatas - Rudolf Buchbinder (10 CD)\CD 5\13 - Sonate Nr.39 D-dur - I.Allegro - Rudolf Buchbinder.wav
Pre-gap length 0:00:07.12
Peak level 77.2 %
Track quality 100.0 %
Copy CRC D9A34CCE
Accurately ripped (confidence 4) [7B642B1B]
Copy OK
Track 14
Filename N:\HAYDN, FRANZ JOSEPH\F.J.Haydn - Complete Piano Sonatas - Rudolf Buchbinder (10 CD)\CD 5\14 - Sonate Nr.39 D-dur - II.Adagio - III.Finale- Presto - Rudolf Buchbinder.wav
Peak level 72.8 %
Track quality 100.0 %
Copy CRC C650FA6E
Accurately ripped (confidence 4) [2F861DA8]
Copy OK
Track 15
Filename N:\HAYDN, FRANZ JOSEPH\F.J.Haydn - Complete Piano Sonatas - Rudolf Buchbinder (10 CD)\CD 5\15 - Sonate Nr.40 Es-dur - I.Moderato - Rudolf Buchbinder.wav
Pre-gap length 0:00:07.18
Peak level 69.8 %
Track quality 100.0 %
Copy CRC 5666AE21
Accurately ripped (confidence 4) [F02A32AD]
Copy OK
Track 16
Filename N:\HAYDN, FRANZ JOSEPH\F.J.Haydn - Complete Piano Sonatas - Rudolf Buchbinder (10 CD)\CD 5\16 - Sonate Nr.40 Es-dur - II.Tempo di Menuet - Rudolf Buchbinder.wav
Peak level 62.7 %
Track quality 100.0 %
Copy CRC 98CD3905
Accurately ripped (confidence 4) [2D5E3244]
Copy OK
All tracks accurately ripped
No errors occurred
End of status report
Exact Audio Copy V0.99 prebeta 4 from 23. January 2008
EAC extraction logfile from 28. September 2010, 20:28
Rudolf Buchbinder / F.J.Haydn - Complete Piano Sonatas CD6
Used drive : PIONEER DVD-RW DVR-112D Adapter: 0 ID: 0
Read mode : Secure
Utilize accurate stream : Yes
Defeat audio cache : Yes
Make use of C2 pointers : No
Read offset correction : 48
Overread into Lead-In and Lead-Out : No
Fill up missing offset samples with silence : Yes
Delete leading and trailing silent blocks : No
Null samples used in CRC calculations : Yes
Used interface : Native Win32 interface for Win NT & 2000
Gap handling : Appended to previous track
Used output format : User Defined Encoder
Selected bitrate : 768 kBit/s
Quality : High
Add ID3 tag : No
Command line compressor : C:\Program Files\Exact Audio Copy\FLAC\FLAC.EXE
Additional command line options : -6 -V -T "ARTIST=%a" -T "TITLE=%t" -T "ALBUM=%g" -T "DATE=%y" -T "TRACKNUMBER=%n" -T "GENRE=%m" -T "COMMENT=%e" %s -o %d
TOC of the extracted CD
Track | Start | Length | Start sector | End sector
––––––––––––––––––––––––––––-
1 | 0:00.00 | 6:42.05 | 0 | 30154
2 | 6:42.05 | 2:18.67 | 30155 | 40571
3 | 9:00.72 | 0:47.45 | 40572 | 44141
4 | 9:48.42 | 3:16.58 | 44142 | 58899
5 | 13:05.25 | 4:17.60 | 58900 | 78234
6 | 17:23.10 | 2:38.02 | 78235 | 90086
7 | 20:01.12 | 6:41.68 | 90087 | 120229
8 | 26:43.05 | 3:01.25 | 120230 | 133829
9 | 29:44.30 | 3:26.32 | 133830 | 149311
10 | 33:10.62 | 6:31.68 | 149312 | 178704
11 | 39:42.55 | 7:02.10 | 178705 | 210364
12 | 46:44.65 | 4:33.35 | 210365 | 230874
13 | 51:18.25 | 7:43.00 | 230875 | 265599
14 | 59:01.25 | 6:33.25 | 265600 | 295099
15 | 65:34.50 | 4:49.37 | 295100 | 316811
16 | 70:24.12 | 3:44.05 | 316812 | 333616
17 | 74:08.17 | 2:56.73 | 333617 | 346889
Track 1
Filename N:\HAYDN, FRANZ JOSEPH\F.J.Haydn - Complete Piano Sonatas - Rudolf Buchbinder (10 CD)\CD 6\01 - Sonata No.41 in A major - I.Allegro moderato - Rudolf Buchbinder.wav
Pre-gap length 0:00:02.00
Peak level 56.7 %
Track quality 100.0 %
Copy CRC E1D1D406
Accurately ripped (confidence 5) [48AD17A7]
Copy OK
Track 2
Filename N:\HAYDN, FRANZ JOSEPH\F.J.Haydn - Complete Piano Sonatas - Rudolf Buchbinder (10 CD)\CD 6\02 - Sonata No.41 in A major - II.Menuet al rovescio - Rudolf Buchbinder.wav
Pre-gap length 0:00:01.05
Peak level 42.7 %
Track quality 100.0 %
Copy CRC 8EA051F8
Accurately ripped (confidence 5) [B6C1C679]
Copy OK
Track 3
Filename N:\HAYDN, FRANZ JOSEPH\F.J.Haydn - Complete Piano Sonatas - Rudolf Buchbinder (10 CD)\CD 6\03 - Sonata No.41 in A major - III.Finale- Presto - Rudolf Buchbinder.wav
Peak level 67.7 %
Track quality 99.6 %
Copy CRC 7DBD3938
Accurately ripped (confidence 5) [02354C2A]
Copy OK
Track 4
Filename N:\HAYDN, FRANZ JOSEPH\F.J.Haydn - Complete Piano Sonatas - Rudolf Buchbinder (10 CD)\CD 6\04 - Sonata No.42 in G major - I.Allegro con brio - Rudolf Buchbinder.wav
Pre-gap length 0:00:06.00
Peak level 74.5 %
Track quality 99.9 %
Copy CRC 7E7F2024
Accurately ripped (confidence 5) [AE8A4C3D]
Copy OK
Track 5
Filename N:\HAYDN, FRANZ JOSEPH\F.J.Haydn - Complete Piano Sonatas - Rudolf Buchbinder (10 CD)\CD 6\05 - Sonata No.42 in G major - II.Menuet - Rudolf Buchbinder.wav
Peak level 58.7 %
Track quality 99.9 %
Copy CRC 04AA08AF
Accurately ripped (confidence 5) [3C3B01F0]
Copy OK
Track 6
Filename N:\HAYDN, FRANZ JOSEPH\F.J.Haydn - Complete Piano Sonatas - Rudolf Buchbinder (10 CD)\CD 6\06 - Sonata No.42 in G major - III.Finale- Presto - Rudolf Buchbinder.wav
Peak level 72.6 %
Track quality 99.7 %
Copy CRC BC56ACEA
Accurately ripped (confidence 5) [C70FA9EF]
Copy OK
Track 7
Filename N:\HAYDN, FRANZ JOSEPH\F.J.Haydn - Complete Piano Sonatas - Rudolf Buchbinder (10 CD)\CD 6\07 - Sonata No.43 in E flat major - I.Allegro moderato - Rudolf Buchbinder.wav
Pre-gap length 0:00:06.22
Peak level 66.3 %
Track quality 99.9 %
Copy CRC 1796A05C
Accurately ripped (confidence 5) [5387E5F6]
Copy OK
Track 8
Filename N:\HAYDN, FRANZ JOSEPH\F.J.Haydn - Complete Piano Sonatas - Rudolf Buchbinder (10 CD)\CD 6\08 - Sonata No.43 in E flat major - II.Menuet - Rudolf Buchbinder.wav
Pre-gap length 0:00:01.58
Peak level 50.5 %
Track quality 99.8 %
Copy CRC 2EE0C5CE
Accurately ripped (confidence 5) [71596C29]
Copy OK
Track 9
Filename N:\HAYDN, FRANZ JOSEPH\F.J.Haydn - Complete Piano Sonatas - Rudolf Buchbinder (10 CD)\CD 6\09 - Sonata No.43 in E flat major - III.Finale- Presto - Rudolf Buchbinder.wav
Pre-gap length 0:00:01.10
Peak level 65.4 %
Track quality 99.9 %
Copy CRC A4FD8A67
Accurately ripped (confidence 5) [3AFE11C3]
Copy OK
Track 10
Filename N:\HAYDN, FRANZ JOSEPH\F.J.Haydn - Complete Piano Sonatas - Rudolf Buchbinder (10 CD)\CD 6\10 - Sonata No.44 in F major - I.Moderato - Rudolf Buchbinder.wav
Pre-gap length 0:00:06.01
Peak level 98.8 %
Track quality 100.0 %
Copy CRC 6AC8AEFC
Accurately ripped (confidence 5) [ACE98243]
Copy OK
Track 11
Filename N:\HAYDN, FRANZ JOSEPH\F.J.Haydn - Complete Piano Sonatas - Rudolf Buchbinder (10 CD)\CD 6\11 - Sonata No.44 in F major - II.Adagio - Rudolf Buchbinder.wav
Pre-gap length 0:00:04.08
Peak level 49.1 %
Track quality 100.0 %
Copy CRC 386C8EA3
Accurately ripped (confidence 5) [13ED895C]
Copy OK
Track 12
Filename N:\HAYDN, FRANZ JOSEPH\F.J.Haydn - Complete Piano Sonatas - Rudolf Buchbinder (10 CD)\CD 6\12 - Sonata No.44 in F major - III.Tempo di menuet - Rudolf Buchbinder.wav
Pre-gap length 0:00:03.65
Peak level 73.2 %
Track quality 100.0 %
Copy CRC 8851444A
Accurately ripped (confidence 5) [265A0C7E]
Copy OK
Track 13
Filename N:\HAYDN, FRANZ JOSEPH\F.J.Haydn - Complete Piano Sonatas - Rudolf Buchbinder (10 CD)\CD 6\13 - Sonata No.45 in A major - I.Allegro - Adagio - Rudolf Buchbinder.wav
Pre-gap length 0:00:06.03
Peak level 72.7 %
Track quality 100.0 %
Copy CRC E8C502AC
Accurately ripped (confidence 5) [095F49BF]
Copy OK
Track 14
Filename N:\HAYDN, FRANZ JOSEPH\F.J.Haydn - Complete Piano Sonatas - Rudolf Buchbinder (10 CD)\CD 6\14 - Sonata No.45 in A major - II.Tempo di menuet - Rudolf Buchbinder.wav
Peak level 52.2 %
Track quality 100.0 %
Copy CRC B9185BA6
Accurately ripped (confidence 5) [965E4BD6]
Copy OK
Track 15
Filename N:\HAYDN, FRANZ JOSEPH\F.J.Haydn - Complete Piano Sonatas - Rudolf Buchbinder (10 CD)\CD 6\15 - Sonata No.47 in B minor - I.Allegro moderato - Rudolf Buchbinder.wav
Pre-gap length 0:00:06.08
Peak level 92.0 %
Track quality 100.0 %
Copy CRC B9BF2BE3
Accurately ripped (confidence 5) [58F592CF]
Copy OK
Track 16
Filename N:\HAYDN, FRANZ JOSEPH\F.J.Haydn - Complete Piano Sonatas - Rudolf Buchbinder (10 CD)\CD 6\16 - Sonata No.47 in B minor - II.Menuet - Rudolf Buchbinder.wav
Pre-gap length 0:00:01.00
Peak level 79.5 %
Track quality 100.0 %
Copy CRC 0BBF4CF7
Accurately ripped (confidence 5) [C890E6D9]
Copy OK
Track 17
Filename N:\HAYDN, FRANZ JOSEPH\F.J.Haydn - Complete Piano Sonatas - Rudolf Buchbinder (10 CD)\CD 6\17 - Sonata No.47 in B minor - III.Finale- Presto - Rudolf Buchbinder.wav
Peak level 84.6 %
Track quality 99.9 %
Copy CRC C93A7B23
Accurately ripped (confidence 5) [C04F32DC]
Copy OK
All tracks accurately ripped
No errors occurred
End of status report
Exact Audio Copy V0.99 prebeta 4 from 23. January 2008
EAC extraction logfile from 28. September 2010, 22:14
Rudolf Buchbinder / F.J.Haydn - Complete Piano Sonatas CD7
Used drive : PIONEER DVD-RW DVR-112D Adapter: 0 ID: 0
Read mode : Secure
Utilize accurate stream : Yes
Defeat audio cache : Yes
Make use of C2 pointers : No
Read offset correction : 48
Overread into Lead-In and Lead-Out : No
Fill up missing offset samples with silence : Yes
Delete leading and trailing silent blocks : No
Null samples used in CRC calculations : Yes
Used interface : Native Win32 interface for Win NT & 2000
Gap handling : Appended to previous track
Used output format : User Defined Encoder
Selected bitrate : 768 kBit/s
Quality : High
Add ID3 tag : No
Command line compressor : C:\Program Files\Exact Audio Copy\FLAC\FLAC.EXE
Additional command line options : -6 -V -T "ARTIST=%a" -T "TITLE=%t" -T "ALBUM=%g" -T "DATE=%y" -T "TRACKNUMBER=%n" -T "GENRE=%m" -T "COMMENT=%e" %s -o %d
TOC of the extracted CD
Track | Start | Length | Start sector | End sector
––––––––––––––––––––––––––––-
1 | 0:00.00 | 5:13.70 | 0 | 23544
2 | 5:13.70 | 2:06.50 | 23545 | 33044
3 | 7:20.45 | 2:04.62 | 33045 | 42406
4 | 9:25.32 | 6:20.00 | 42407 | 70906
5 | 15:45.32 | 8:07.63 | 70907 | 107494
6 | 23:53.20 | 3:21.45 | 107495 | 122614
7 | 27:14.65 | 5:43.70 | 122615 | 148409
8 | 32:58.60 | 3:03.40 | 148410 | 162174
9 | 36:02.25 | 3:43.07 | 162175 | 178906
10 | 39:45.32 | 4:00.55 | 178907 | 196961
11 | 43:46.12 | 6:14.48 | 196962 | 225059
12 | 50:00.60 | 5:55.40 | 225060 | 251724
13 | 55:56.25 | 5:05.10 | 251725 | 274609
14 | 61:01.35 | 2:40.04 | 274610 | 286613
Track 1
Filename N:\HAYDN, FRANZ JOSEPH\F.J.Haydn - Complete Piano Sonatas - Rudolf Buchbinder (10 CD)\CD 7\01 - Sonata No.46 in E major - I.Moderato - Rudolf Buchbinder.wav
Pre-gap length 0:00:02.00
Peak level 63.3 %
Track quality 100.0 %
Copy CRC C489DAA9
Accurately ripped (confidence 5) [71AF0843]
Copy OK
Track 2
Filename N:\HAYDN, FRANZ JOSEPH\F.J.Haydn - Complete Piano Sonatas - Rudolf Buchbinder (10 CD)\CD 7\02 - Sonata No.46 in E major - II.Allegretto - Rudolf Buchbinder.wav
Peak level 66.4 %
Track quality 100.0 %
Copy CRC BDD8A3D1
Accurately ripped (confidence 5) [3EBD0D9D]
Copy OK
Track 3
Filename N:\HAYDN, FRANZ JOSEPH\F.J.Haydn - Complete Piano Sonatas - Rudolf Buchbinder (10 CD)\CD 7\03 - Sonata No.46 in E major - III.Finale- Presto - Rudolf Buchbinder.wav
Peak level 73.9 %
Track quality 100.0 %
Copy CRC 5477E432
Accurately ripped (confidence 5) [66A5EFFA]
Copy OK
Track 4
Filename N:\HAYDN, FRANZ JOSEPH\F.J.Haydn - Complete Piano Sonatas - Rudolf Buchbinder (10 CD)\CD 7\04 - Sonata No.48 in C major - I.Allegro con brio - Rudolf Buchbinder.wav
Pre-gap length 0:00:05.72
Peak level 89.0 %
Track quality 99.9 %
Copy CRC 6CB71938
Accurately ripped (confidence 5) [B907DC6B]
Copy OK
Track 5
Filename N:\HAYDN, FRANZ JOSEPH\F.J.Haydn - Complete Piano Sonatas - Rudolf Buchbinder (10 CD)\CD 7\05 - Sonata No.48 in C major - II.Adagio - Rudolf Buchbinder.wav
Pre-gap length 0:00:03.59
Peak level 55.6 %
Track quality 99.9 %
Copy CRC 6B461577
Accurately ripped (confidence 5) [9DE73BB2]
Copy OK
Track 6
Filename N:\HAYDN, FRANZ JOSEPH\F.J.Haydn - Complete Piano Sonatas - Rudolf Buchbinder (10 CD)\CD 7\06 - Sonata No.48 in C major - III.Finale- Allegro - Rudolf Buchbinder.wav
Pre-gap length 0:00:01.70
Peak level 66.3 %
Track quality 100.0 %
Copy CRC AEF19FDB
Accurately ripped (confidence 5) [99A8D52B]
Copy OK
Track 7
Filename N:\HAYDN, FRANZ JOSEPH\F.J.Haydn - Complete Piano Sonatas - Rudolf Buchbinder (10 CD)\CD 7\07 - Sonata No.49 in C sharp minor - I.Moderato - Rudolf Buchbinder.wav
Pre-gap length 0:00:06.25
Peak level 79.3 %
Track quality 100.0 %
Copy CRC B5E749F5
Accurately ripped (confidence 5) [40CDAAE4]
Copy OK
Track 8
Filename N:\HAYDN, FRANZ JOSEPH\F.J.Haydn - Complete Piano Sonatas - Rudolf Buchbinder (10 CD)\CD 7\08 - Sonata No.49 in C sharp minor - II.Scherzando- Allegro con brio - Rudolf Buchbinder.wav
Pre-gap length 0:00:01.25
Peak level 86.6 %
Track quality 100.0 %
Copy CRC AEAFF964
Accurately ripped (confidence 5) [9793C776]
Copy OK
Track 9
Filename N:\HAYDN, FRANZ JOSEPH\F.J.Haydn - Complete Piano Sonatas - Rudolf Buchbinder (10 CD)\CD 7\09 - Sonata No.49 in C sharp minor - III.Menuet- Moderato - Rudolf Buchbinder.wav
Peak level 57.3 %
Track quality 100.0 %
Copy CRC 8DE41A54
Accurately ripped (confidence 5) [07979C20]
Copy OK
Track 10
Filename N:\HAYDN, FRANZ JOSEPH\F.J.Haydn - Complete Piano Sonatas - Rudolf Buchbinder (10 CD)\CD 7\10 - Sonata No.50 in D major - I.Allegro con brio - Rudolf Buchbinder.wav
Pre-gap length 0:00:06.02
Peak level 98.3 %
Track quality 99.9 %
Copy CRC 29ADBA12
Accurately ripped (confidence 5) [0491B77F]
Copy OK
Track 11
Filename N:\HAYDN, FRANZ JOSEPH\F.J.Haydn - Complete Piano Sonatas - Rudolf Buchbinder (10 CD)\CD 7\11 - Sonata No.50 in D major - II.Largo e sostenuto - III.Finale- Presto, ma non troppo - Rudolf Buchbinder.wav
Pre-gap length 0:00:01.00
Peak level 84.2 %
Track quality 100.0 %
Copy CRC AA550785
Accurately ripped (confidence 5) [5DB77667]
Copy OK
Track 12
Filename N:\HAYDN, FRANZ JOSEPH\F.J.Haydn - Complete Piano Sonatas - Rudolf Buchbinder (10 CD)\CD 7\12 - Sonata No.51 in E flat major - I.Allegro moderato - Rudolf Buchbinder.wav
Pre-gap length 0:00:05.58
Peak level 88.5 %
Track quality 100.0 %
Copy CRC 2C7B2E92
Accurately ripped (confidence 5) [DB40F344]
Copy OK
Track 13
Filename N:\HAYDN, FRANZ JOSEPH\F.J.Haydn - Complete Piano Sonatas - Rudolf Buchbinder (10 CD)\CD 7\13 - Sonata No.51 in E flat major - II.Adagio - Rudolf Buchbinder.wav
Pre-gap length 0:00:01.03
Peak level 83.3 %
Track quality 100.0 %
Copy CRC FC4DD629
Accurately ripped (confidence 5) [0FD0F2A5]
Copy OK
Track 14
Filename N:\HAYDN, FRANZ JOSEPH\F.J.Haydn - Complete Piano Sonatas - Rudolf Buchbinder (10 CD)\CD 7\14 - Sonata No.51 in E flat major - III.Finale- Allegro - Rudolf Buchbinder.wav
Peak level 47.1 %
Track quality 99.9 %
Copy CRC E08FD9BC
Accurately ripped (confidence 5) [0FBC6DD7]
Copy OK
All tracks accurately ripped
No errors occurred
End of status report
Exact Audio Copy V0.99 prebeta 4 from 23. January 2008
EAC extraction logfile from 28. September 2010, 22:31
Rudolf Buchbinder / F.J.Haydn - Complete Piano Sonatas CD8
Used drive : PIONEER DVD-RW DVR-112D Adapter: 0 ID: 0
Read mode : Secure
Utilize accurate stream : Yes
Defeat audio cache : Yes
Make use of C2 pointers : No
Read offset correction : 48
Overread into Lead-In and Lead-Out : No
Fill up missing offset samples with silence : Yes
Delete leading and trailing silent blocks : No
Null samples used in CRC calculations : Yes
Used interface : Native Win32 interface for Win NT & 2000
Gap handling : Appended to previous track
Used output format : User Defined Encoder
Selected bitrate : 768 kBit/s
Quality : High
Add ID3 tag : No
Command line compressor : C:\Program Files\Exact Audio Copy\FLAC\FLAC.EXE
Additional command line options : -6 -V -T "ARTIST=%a" -T "TITLE=%t" -T "ALBUM=%g" -T "DATE=%y" -T "TRACKNUMBER=%n" -T "GENRE=%m" -T "COMMENT=%e" %s -o %d
TOC of the extracted CD
Track | Start | Length | Start sector | End sector
––––––––––––––––––––––––––––-
1 | 0:00.00 | 3:48.45 | 0 | 17144
2 | 3:48.45 | 10:01.35 | 17145 | 62254
3 | 13:50.05 | 2:51.55 | 62255 | 75134
4 | 16:41.60 | 3:03.35 | 75135 | 88894
5 | 19:45.20 | 8:59.30 | 88895 | 129349
6 | 28:44.50 | 8:01.00 | 129350 | 165424
7 | 36:45.50 | 3:08.05 | 165425 | 179529
8 | 39:53.55 | 5:55.70 | 179530 | 206224
9 | 45:49.50 | 2:21.25 | 206225 | 216824
10 | 48:11.00 | 8:36.55 | 216825 | 255579
11 | 56:47.55 | 1:37.07 | 255580 | 262861
12 | 58:24.62 | 4:30.13 | 262862 | 283124
13 | 62:55.00 | 5:18.15 | 283125 | 306989
14 | 68:13.15 | 3:03.69 | 306990 | 320783
Track 1
Filename N:\HAYDN, FRANZ JOSEPH\F.J.Haydn - Complete Piano Sonatas - Rudolf Buchbinder (10 CD)\CD 8\01 - Sonate Nr.52 G-dur - I.Allegro con brio - Rudolf Buchbinder.wav
Pre-gap length 0:00:02.00
Peak level 76.3 %
Track quality 100.0 %
Copy CRC DE32CF58
Accurately ripped (confidence 5) [DF09FA9B]
Copy OK
Track 2
Filename N:\HAYDN, FRANZ JOSEPH\F.J.Haydn - Complete Piano Sonatas - Rudolf Buchbinder (10 CD)\CD 8\02 - Sonate Nr.52 G-dur - II.Adagio - Rudolf Buchbinder.wav
Pre-gap length 0:00:02.68
Peak level 66.8 %
Track quality 100.0 %
Copy CRC C3E232A0
Accurately ripped (confidence 5) [9B195829]
Copy OK
Track 3
Filename N:\HAYDN, FRANZ JOSEPH\F.J.Haydn - Complete Piano Sonatas - Rudolf Buchbinder (10 CD)\CD 8\03 - Sonate Nr.52 G-dur - III.Prestissimo - Rudolf Buchbinder.wav
Pre-gap length 0:00:01.53
Peak level 79.2 %
Track quality 100.0 %
Copy CRC DD1786CB
Accurately ripped (confidence 5) [63E7BD22]
Copy OK
Track 4
Filename N:\HAYDN, FRANZ JOSEPH\F.J.Haydn - Complete Piano Sonatas - Rudolf Buchbinder (10 CD)\CD 8\04 - Sonate Nr.53 e-moll - I.Presto - Rudolf Buchbinder.wav
Pre-gap length 0:00:05.60
Peak level 66.8 %
Track quality 99.9 %
Copy CRC FD85C14A
Accurately ripped (confidence 5) [AD90F810]
Copy OK
Track 5
Filename N:\HAYDN, FRANZ JOSEPH\F.J.Haydn - Complete Piano Sonatas - Rudolf Buchbinder (10 CD)\CD 8\05 - Sonate Nr.53 e-moll - II.Adagio - III.Vivace molto innocentemente - Rudolf Buchbinder.wav
Peak level 79.9 %
Track quality 99.9 %
Copy CRC F47A7714
Accurately ripped (confidence 5) [93D07AA9]
Copy OK
Track 6
Filename N:\HAYDN, FRANZ JOSEPH\F.J.Haydn - Complete Piano Sonatas - Rudolf Buchbinder (10 CD)\CD 8\06 - Sonate Nr.54 G-dur - I.Allegretto innocente - Rudolf Buchbinder.wav
Pre-gap length 0:00:06.65
Peak level 80.5 %
Track quality 99.9 %
Copy CRC 53C37EAB
Accurately ripped (confidence 5) [D7B848A8]
Copy OK
Track 7
Filename N:\HAYDN, FRANZ JOSEPH\F.J.Haydn - Complete Piano Sonatas - Rudolf Buchbinder (10 CD)\CD 8\07 - Sonate Nr.54 G-dur - II.Presto - Rudolf Buchbinder.wav
Peak level 94.3 %
Track quality 100.0 %
Copy CRC 289F76A2
Accurately ripped (confidence 5) [414CBB36]
Copy OK
Track 8
Filename N:\HAYDN, FRANZ JOSEPH\F.J.Haydn - Complete Piano Sonatas - Rudolf Buchbinder (10 CD)\CD 8\08 - Sonate Nr.55 B-dur - I.Allegro - Rudolf Buchbinder.wav
Pre-gap length 0:00:05.68
Peak level 73.3 %
Track quality 100.0 %
Copy CRC 7F95D0F5
Accurately ripped (confidence 5) [DF2686CD]
Copy OK
Track 9
Filename N:\HAYDN, FRANZ JOSEPH\F.J.Haydn - Complete Piano Sonatas - Rudolf Buchbinder (10 CD)\CD 8\09 - Sonate Nr.55 B-dur - II.Allegro di molto - Rudolf Buchbinder.wav
Peak level 91.3 %
Track quality 100.0 %
Copy CRC C19C65EB
Accurately ripped (confidence 5) [C2F1804D]
Copy OK
Track 10
Filename N:\HAYDN, FRANZ JOSEPH\F.J.Haydn - Complete Piano Sonatas - Rudolf Buchbinder (10 CD)\CD 8\10 - Sonate Nr.56 D-dur - I.Andante con espressione - Rudolf Buchbinder.wav
Pre-gap length 0:00:06.03
Peak level 83.6 %
Track quality 100.0 %
Copy CRC F93125C4
Accurately ripped (confidence 5) [4559B014]
Copy OK
Track 11
Filename N:\HAYDN, FRANZ JOSEPH\F.J.Haydn - Complete Piano Sonatas - Rudolf Buchbinder (10 CD)\CD 8\11 - Sonate Nr.56 D-dur - II.Vivace assai - Rudolf Buchbinder.wav
Peak level 62.3 %
Track quality 100.0 %
Copy CRC B2650C5F
Accurately ripped (confidence 5) [57EC05ED]
Copy OK
Track 12
Filename N:\HAYDN, FRANZ JOSEPH\F.J.Haydn - Complete Piano Sonatas - Rudolf Buchbinder (10 CD)\CD 8\12 - Sonate Nr.57 F-dur - I.Moderato - Rudolf Buchbinder.wav
Pre-gap length 0:00:05.65
Peak level 65.4 %
Track quality 100.0 %
Copy CRC 29EF9F07
Accurately ripped (confidence 5) [5592719F]
Copy OK
Track 13
Filename N:\HAYDN, FRANZ JOSEPH\F.J.Haydn - Complete Piano Sonatas - Rudolf Buchbinder (10 CD)\CD 8\13 - Sonate Nr.57 F-dur - II.Larghetto - Rudolf Buchbinder.wav
Pre-gap length 0:00:04.05
Peak level 78.1 %
Track quality 100.0 %
Copy CRC E59AA665
Accurately ripped (confidence 5) [6150868C]
Copy OK
Track 14
Filename N:\HAYDN, FRANZ JOSEPH\F.J.Haydn - Complete Piano Sonatas - Rudolf Buchbinder (10 CD)\CD 8\14 - Sonate Nr.57 F-dur - III.Allegro - Rudolf Buchbinder.wav
Peak level 79.1 %
Track quality 100.0 %
Copy CRC DD575FA5
Accurately ripped (confidence 5) [54B348D0]
Copy OK
All tracks accurately ripped
No errors occurred
End of status report
Exact Audio Copy V0.99 prebeta 4 from 23. January 2008
EAC extraction logfile from 28. September 2010, 22:58
Rudolf Buchbinder / F.J.Haydn - Complete Piano Sonatas CD9
Used drive : PIONEER DVD-RW DVR-112D Adapter: 0 ID: 0
Read mode : Secure
Utilize accurate stream : Yes
Defeat audio cache : Yes
Make use of C2 pointers : No
Read offset correction : 48
Overread into Lead-In and Lead-Out : No
Fill up missing offset samples with silence : Yes
Delete leading and trailing silent blocks : No
Null samples used in CRC calculations : Yes
Used interface : Native Win32 interface for Win NT & 2000
Gap handling : Appended to previous track
Used output format : User Defined Encoder
Selected bitrate : 768 kBit/s
Quality : High
Add ID3 tag : No
Command line compressor : C:\Program Files\Exact Audio Copy\FLAC\FLAC.EXE
Additional command line options : -6 -V -T "ARTIST=%a" -T "TITLE=%t" -T "ALBUM=%g" -T "DATE=%y" -T "TRACKNUMBER=%n" -T "GENRE=%m" -T "COMMENT=%e" %s -o %d
TOC of the extracted CD
Track | Start | Length | Start sector | End sector
––––––––––––––––––––––––––––-
1 | 0:00.00 | 7:03.45 | 0 | 31769
2 | 7:03.45 | 3:45.22 | 31770 | 48666
3 | 10:48.67 | 6:59.58 | 48667 | 80149
4 | 17:48.50 | 8:01.42 | 80150 | 116266
5 | 25:50.17 | 4:03.55 | 116267 | 134546
6 | 29:53.72 | 8:04.35 | 134547 | 170881
7 | 37:58.32 | 6:38.70 | 170882 | 200801
8 | 44:37.27 | 2:12.33 | 200802 | 210734
9 | 46:49.60 | 3:30.72 | 210735 | 226556
10 | 50:20.57 | 1:36.13 | 226557 | 233769
11 | 51:56.70 | 8:47.15 | 233770 | 273309
12 | 60:44.10 | 7:30.55 | 273310 | 307114
13 | 68:14.65 | 5:23.01 | 307115 | 331340
Track 1
Filename N:\HAYDN, FRANZ JOSEPH\F.J.Haydn - Complete Piano Sonatas - Rudolf Buchbinder (10 CD)\CD 9\01 - Sonata No.58 in C major - I.Andante con espressione - Rudolf Buchbinder.wav
Pre-gap length 0:00:02.00
Peak level 89.0 %
Track quality 100.0 %
Copy CRC 1DE83B90
Accurately ripped (confidence 5) [F80E4155]
Copy OK
Track 2
Filename N:\HAYDN, FRANZ JOSEPH\F.J.Haydn - Complete Piano Sonatas - Rudolf Buchbinder (10 CD)\CD 9\02 - Sonata No.58 in C major - II.Rondo- Presto - Rudolf Buchbinder.wav
Peak level 82.6 %
Track quality 100.0 %
Copy CRC 56DD8FBF
Accurately ripped (confidence 5) [5C2BD965]
Copy OK
Track 3
Filename N:\HAYDN, FRANZ JOSEPH\F.J.Haydn - Complete Piano Sonatas - Rudolf Buchbinder (10 CD)\CD 9\03 - Sonata No.59 in E flat major - I.Allegro - Rudolf Buchbinder.wav
Pre-gap length 0:00:05.37
Peak level 85.9 %
Track quality 100.0 %
Copy CRC 23F1CE8B
Accurately ripped (confidence 5) [12281005]
Copy OK
Track 4
Filename N:\HAYDN, FRANZ JOSEPH\F.J.Haydn - Complete Piano Sonatas - Rudolf Buchbinder (10 CD)\CD 9\04 - Sonata No.59 in E flat major - II.Adagio e cantabile - Rudolf Buchbinder.wav
Peak level 69.8 %
Track quality 99.9 %
Copy CRC C447F7FB
Accurately ripped (confidence 5) [FA9D132F]
Copy OK
Track 5
Filename N:\HAYDN, FRANZ JOSEPH\F.J.Haydn - Complete Piano Sonatas - Rudolf Buchbinder (10 CD)\CD 9\05 - Sonata No.59 in E flat major - III.Finale- Tempo di menuet - Rudolf Buchbinder.wav
Pre-gap length 0:00:02.47
Peak level 91.5 %
Track quality 99.9 %
Copy CRC 0584AF32
Accurately ripped (confidence 5) [752A5729]
Copy OK
Track 6
Filename N:\HAYDN, FRANZ JOSEPH\F.J.Haydn - Complete Piano Sonatas - Rudolf Buchbinder (10 CD)\CD 9\06 - Sonata No.60 in C major - I.Allegro - Rudolf Buchbinder.wav
Pre-gap length 0:00:05.27
Peak level 86.1 %
Track quality 99.9 %
Copy CRC 3FF812BF
Accurately ripped (confidence 5) [78FC302E]
Copy OK
Track 7
Filename N:\HAYDN, FRANZ JOSEPH\F.J.Haydn - Complete Piano Sonatas - Rudolf Buchbinder (10 CD)\CD 9\07 - Sonata No.60 in C major - II.Adagio - Rudolf Buchbinder.wav
Peak level 45.0 %
Track quality 100.0 %
Copy CRC D502D3CA
Accurately ripped (confidence 5) [1D4F444C]
Copy OK
Track 8
Filename N:\HAYDN, FRANZ JOSEPH\F.J.Haydn - Complete Piano Sonatas - Rudolf Buchbinder (10 CD)\CD 9\08 - Sonata No.60 in C major - III.Allegro molto - Rudolf Buchbinder.wav
Pre-gap length 0:00:02.51
Peak level 63.0 %
Track quality 100.0 %
Copy CRC 0A4F4BF9
Accurately ripped (confidence 5) [FD1989E4]
Copy OK
Track 9
Filename N:\HAYDN, FRANZ JOSEPH\F.J.Haydn - Complete Piano Sonatas - Rudolf Buchbinder (10 CD)\CD 9\09 - Sonata No.61 in D major - I.Andante - Rudolf Buchbinder.wav
Pre-gap length 0:00:04.68
Peak level 49.8 %
Track quality 100.0 %
Copy CRC 2F16C3F2
Accurately ripped (confidence 5) [AFC9F175]
Copy OK
Track 10
Filename N:\HAYDN, FRANZ JOSEPH\F.J.Haydn - Complete Piano Sonatas - Rudolf Buchbinder (10 CD)\CD 9\10 - Sonata No.61 in D major - II.Finale- Presto - Rudolf Buchbinder.wav
Peak level 33.3 %
Track quality 100.0 %
Copy CRC CD67E2A2
Accurately ripped (confidence 5) [4A5F1FD5]
Copy OK
Track 11
Filename N:\HAYDN, FRANZ JOSEPH\F.J.Haydn - Complete Piano Sonatas - Rudolf Buchbinder (10 CD)\CD 9\11 - Sonata No.62 in E flat major - I.Allegro - Rudolf Buchbinder.wav
Pre-gap length 0:00:06.03
Peak level 78.8 %
Track quality 100.0 %
Copy CRC 54C03EDA
Accurately ripped (confidence 5) [ABDA7BA3]
Copy OK
Track 12
Filename N:\HAYDN, FRANZ JOSEPH\F.J.Haydn - Complete Piano Sonatas - Rudolf Buchbinder (10 CD)\CD 9\12 - Sonata No.62 in E flat major - II.Adagio - Rudolf Buchbinder.wav
Pre-gap length 0:00:02.37
Peak level 64.2 %
Track quality 100.0 %
Copy CRC E74BA7FD
Accurately ripped (confidence 5) [D806572D]
Copy OK
Track 13
Filename N:\HAYDN, FRANZ JOSEPH\F.J.Haydn - Complete Piano Sonatas - Rudolf Buchbinder (10 CD)\CD 9\13 - Sonata No.62 in E flat major - III.Finale- Presto - Rudolf Buchbinder.wav
Peak level 73.8 %
Track quality 100.0 %
Copy CRC 9C5E9D20
Accurately ripped (confidence 5) [F988F862]
Copy OK
All tracks accurately ripped
No errors occurred
End of status report
Exact Audio Copy V0.99 prebeta 4 from 23. January 2008
EAC extraction logfile from 28. September 2010, 23:17
Rudolf Buchbinder / F.J.Haydn - Complete Piano Sonatas CD10
Used drive : PIONEER DVD-RW DVR-112D Adapter: 0 ID: 0
Read mode : Secure
Utilize accurate stream : Yes
Defeat audio cache : Yes
Make use of C2 pointers : No
Read offset correction : 48
Overread into Lead-In and Lead-Out : No
Fill up missing offset samples with silence : Yes
Delete leading and trailing silent blocks : No
Null samples used in CRC calculations : Yes
Used interface : Native Win32 interface for Win NT & 2000
Gap handling : Appended to previous track
Used output format : User Defined Encoder
Selected bitrate : 768 kBit/s
Quality : High
Add ID3 tag : No
Command line compressor : C:\Program Files\Exact Audio Copy\FLAC\FLAC.EXE
Additional command line options : -6 -V -T "ARTIST=%a" -T "TITLE=%t" -T "ALBUM=%g" -T "DATE=%y" -T "TRACKNUMBER=%n" -T "GENRE=%m" -T "COMMENT=%e" %s -o %d
TOC of the extracted CD
Track | Start | Length | Start sector | End sector
––––––––––––––––––––––––––––-
1 | 0:00.00 | 1:38.42 | 0 | 7391
2 | 1:38.42 | 2:09.70 | 7392 | 17136
3 | 3:48.37 | 5:25.03 | 17137 | 41514
4 | 9:13.40 | 4:10.72 | 41515 | 60336
5 | 13:24.37 | 2:50.13 | 60337 | 73099
6 | 16:14.50 | 1:30.67 | 73100 | 79916
7 | 17:45.42 | 16:59.20 | 79917 | 156361
8 | 34:44.62 | 13:33.55 | 156362 | 217391
9 | 48:18.42 | 7:42.25 | 217392 | 252066
10 | 56:00.67 | 14:02.33 | 252067 | 315249
11 | 70:03.25 | 1:00.47 | 315250 | 319796
12 | 71:03.72 | 4:07.45 | 319797 | 338366
Track 1
Filename N:\HAYDN, FRANZ JOSEPH\F.J.Haydn - Complete Piano Sonatas - Rudolf Buchbinder (10 CD)\CD 10\01 - Sonata in C major - I.Allegro - Rudolf Buchbinder.wav
Pre-gap length 0:00:02.00
Peak level 32.5 %
Track quality 100.0 %
Copy CRC 6A8035F3
Accurately ripped (confidence 5) [207BB672]
Copy OK
Track 2
Filename N:\HAYDN, FRANZ JOSEPH\F.J.Haydn - Complete Piano Sonatas - Rudolf Buchbinder (10 CD)\CD 10\02 - Sonata in C major - II.Menuetto - Rudolf Buchbinder.wav
Peak level 34.9 %
Track quality 100.0 %
Copy CRC 24BF8119
Accurately ripped (confidence 5) [C8648439]
Copy OK
Track 3
Filename N:\HAYDN, FRANZ JOSEPH\F.J.Haydn - Complete Piano Sonatas - Rudolf Buchbinder (10 CD)\CD 10\03 - Sonata in C major - III.Air- Moderato - Rudolf Buchbinder.wav
Peak level 28.8 %
Track quality 100.0 %
Copy CRC 28E2C939
Accurately ripped (confidence 5) [8C2AB4EC]
Copy OK
Track 4
Filename N:\HAYDN, FRANZ JOSEPH\F.J.Haydn - Complete Piano Sonatas - Rudolf Buchbinder (10 CD)\CD 10\04 - Sonata in E flat major - I.Andante - Rudolf Buchbinder.wav
Pre-gap length 0:00:05.60
Peak level 66.6 %
Track quality 100.0 %
Copy CRC E32DD99D
Accurately ripped (confidence 5) [084A9B5B]
Copy OK
Track 5
Filename N:\HAYDN, FRANZ JOSEPH\F.J.Haydn - Complete Piano Sonatas - Rudolf Buchbinder (10 CD)\CD 10\05 - Sonata in E flat major - II.Menuetto - Rudolf Buchbinder.wav
Peak level 41.3 %
Track quality 100.0 %
Copy CRC D9D253E3
Accurately ripped (confidence 5) [ABD2AA94]
Copy OK
Track 6
Filename N:\HAYDN, FRANZ JOSEPH\F.J.Haydn - Complete Piano Sonatas - Rudolf Buchbinder (10 CD)\CD 10\06 - Sonata in E flat major - III.Presto - Rudolf Buchbinder.wav
Peak level 52.0 %
Track quality 100.0 %
Copy CRC DAE35FC2
Accurately ripped (confidence 5) [D8F33CC3]
Copy OK
Track 7
Filename N:\HAYDN, FRANZ JOSEPH\F.J.Haydn - Complete Piano Sonatas - Rudolf Buchbinder (10 CD)\CD 10\07 - Sonata in F minor - Un piccolo divertimento; Variations - Rudolf Buchbinder.wav
Pre-gap length 0:00:06.22
Peak level 90.6 %
Track quality 100.0 %
Copy CRC 98F63493
Accurately ripped (confidence 5) [DE2CF603]
Copy OK
Track 8
Filename N:\HAYDN, FRANZ JOSEPH\F.J.Haydn - Complete Piano Sonatas - Rudolf Buchbinder (10 CD)\CD 10\08 - 12 Variations in E flat major - Rudolf Buchbinder.wav
Pre-gap length 0:00:06.20
Peak level 58.8 %
Track quality 100.0 %
Copy CRC B242EDAE
Accurately ripped (confidence 5) [A866694D]
Copy OK
Track 9
Filename N:\HAYDN, FRANZ JOSEPH\F.J.Haydn - Complete Piano Sonatas - Rudolf Buchbinder (10 CD)\CD 10\09 - 6 Variations in C major - Rudolf Buchbinder.wav
Pre-gap length 0:00:05.42
Peak level 67.2 %
Track quality 100.0 %
Copy CRC 0921758A
Accurately ripped (confidence 5) [6F8605E3]
Copy OK
Track 10
Filename N:\HAYDN, FRANZ JOSEPH\F.J.Haydn - Complete Piano Sonatas - Rudolf Buchbinder (10 CD)\CD 10\10 - 20 Variations in A major - Rudolf Buchbinder.wav
Pre-gap length 0:00:05.10
Peak level 95.4 %
Track quality 99.9 %
Copy CRC DD5D60DE
Accurately ripped (confidence 5) [38727C60]
Copy OK
Track 11
Filename N:\HAYDN, FRANZ JOSEPH\F.J.Haydn - Complete Piano Sonatas - Rudolf Buchbinder (10 CD)\CD 10\11 - Alternative Variation for Hob.XVII-2 - Rudolf Buchbinder.wav
Pre-gap length 0:00:05.10
Peak level 36.6 %
Track quality 100.0 %
Copy CRC 7D063F6B
Accurately ripped (confidence 5) [330592E8]
Copy OK
Track 12
Filename N:\HAYDN, FRANZ JOSEPH\F.J.Haydn - Complete Piano Sonatas - Rudolf Buchbinder (10 CD)\CD 10\12 - 5 Variations in D major - Rudolf Buchbinder.wav
Pre-gap length 0:00:05.22
Peak level 80.0 %
Track quality 100.0 %
Copy CRC 41210DE2
Accurately ripped (confidence 5) [DD5A7520]
Copy OK
All tracks accurately ripped
No errors occurred
End of status report


Thanks to the original ripper.