Tags
Language
Tags

SIMO - Let Love Show The Way (2016)

Posted By: popsakov
SIMO - Let Love Show The Way (2016)

SIMO - Let Love Show The Way (2016)
EAC Rip | FLAC (Img) + Cue + Log ~ 457 Mb | MP3 CBR320 ~ 163 Mb
Full Scans ~ 180 Mb | 01:07:38 | RAR 5% Recovery
Blues Rock, Psychedelic Rock | Provogue Records #PRD 7476 2

As if creeping from the Southern swamps and mist-soaked cotton fields, SIMO’s “Stranger Blues” is the perfect table setter for the Nashville power trio’s vibrant new LP, Let Love Show the Way. The song is a blueprint for reinvigorating the fusion of jazz improvisation, downhome blues and classic R&B, as well as these genres’ psychedelic Brit Invasion and countrified Southern-rock manifestations. The rest of the record follows suit, a souped-up vehicle transporting the band on a deeply satisfying, off-the-cuff musical journey.

Delivering powerful blues rock with a psychedelic sheen and a strong thread of improvisational imagination, Simo is a power trio from Nashville, Tennessee led by guitarist J.D. Simo. J.D. grew up in Chicago, Illinois, and developed a taste for the blues as a kid, listening to a Chess Records collection his sister often played. J.D. started playing guitar when he was five, and once talked his mom into taking him to see the abandoned Chess Records building on South Michigan Avenue. By the time he was 18, J.D.'s family was living in Arizona, and he was headlining clubs and playing festivals with his backing combo Dirty Pool; they issued an EP, Burnin' Live, which sold an impressive 5,000 copies as an independent release. After walking away from high school, J.D. and his band hit the road and released a studio album, One Night Stand, in 2002. After two more albums, 2004's The Other Side of Me and 2005's J.D. Simo Live, the guitarist parted ways with Dirty Pool and relocated to Nashville in 2006. J.D. made a name for himself in Music City after he joined a popular local group, the Don Kelley Band, and soon he was dividing his time between live gigs and session work, gaining a reputation as one of the city's best guitarists. In 2010, J.D. decided to break out on his own, and he formed a new band with two seasoned musicians, bassist Frank Swart and drummer Adam Abrashoff. The new combo was dubbed Simo, and their self-titled debut album arrived in 2011. Simo hit the road hard in support, and well-respected reissue label Sundazed Records made the rare choice of releasing a new recording by putting out a Simo single, "Shake It" b/w "AoH," later the same year. In 2015, the trio released a live EP, Love, Vol. One, recorded during a show at Nashville's Mercy Lounge; that same year, Swart left Simo and Elad Shapiro became the group's new drummer. By this time, word had spread about the band's incendiary live show, and the group was playing festivals like Bonnaroo and Mountain Jam as well as sharing bills with Gregg Allman, Joe Bonamassa, Blackberry Smoke, Deep Purple, and many others. In 2015, Simo scored a deal with Provogue Records, and they released their first album for the label, Let Love Show the Way, in 2016.

~ Mark Deming, All Music
SIMO - Let Love Show The Way (2016)


***************

SIMO - Let Love Show The Way (2016)

Track List:

01. Stranger Blues [0:05:09.15]
02. Two Timin' Woman [0:03:01.59]
03. Can't Say Her Name [0:03:14.46]
04. I Lied [0:03:33.60]
05. Please [0:02:40.65]
06. Long May You Sail [0:04:43.12]
07. I'll Always Be Around [0:04:41.30]
08. Becky's Last Occupation [0:04:22.11]
09. I'd Rather Die in Vain [0:09:55.23]
10. Today I'm Here [0:02:47.37]
11. Let Love Show The Way [Bonus Track] [0:06:00.63]
12. Ain't Doin' Nothin' [Bonus Track] [0:13:57.11]
13. Please Be With Me [Bonus Track] [0:03:30.31]

Exact Audio Copy V1.1 from 23. June 2015

EAC extraction logfile from 25. February 2016, 15:49

SIMO / Let Love Show the Way

Used drive : HL-DT-STDVD-ROM DH16NS10 Adapter: 1 ID: 0

Read mode : Secure
Utilize accurate stream : Yes
Defeat audio cache : Yes
Make use of C2 pointers : No

Read offset correction : 102
Overread into Lead-In and Lead-Out : No
Fill up missing offset samples with silence : Yes
Delete leading and trailing silent blocks : No
Null samples used in CRC calculations : Yes
Used interface : Native Win32 interface for Win NT & 2000

Used output format : User Defined Encoder
Selected bitrate : 896 kBit/s
Quality : High
Add ID3 tag : No
Command line compressor : C:\Program Files\Wavpack\wavpack.exe
Additional command line options : -hlmx4 %source% %dest%


TOC of the extracted CD

Track | Start | Length | Start sector | End sector
––––––––––––––––––––––––––––-
1 | 0:00.00 | 5:09.15 | 0 | 23189
2 | 5:09.15 | 3:01.59 | 23190 | 36823
3 | 8:10.74 | 3:14.46 | 36824 | 51419
4 | 11:25.45 | 3:33.60 | 51420 | 67454
5 | 14:59.30 | 2:40.65 | 67455 | 79519
6 | 17:40.20 | 4:43.12 | 79520 | 100756
7 | 22:23.32 | 4:41.30 | 100757 | 121861
8 | 27:04.62 | 4:22.11 | 121862 | 141522
9 | 31:26.73 | 9:55.23 | 141523 | 186170
10 | 41:22.21 | 2:47.37 | 186171 | 198732
11 | 44:09.58 | 6:00.63 | 198733 | 225795
12 | 50:10.46 | 13:57.11 | 225796 | 288581
13 | 64:07.57 | 3:30.31 | 288582 | 304362


Range status and errors

Selected range

Filename F:\Releases_RAW\SIMO - Let Love Show the Way\SIMO - Let Love Show the Way.wav

Peak level 96.8 %
Extraction speed 8.7 X
Range quality 100.0 %
Test CRC 4C61F9C9
Copy CRC 4C61F9C9
Copy OK

No errors occurred


AccurateRip summary

Track 1 not present in database
Track 2 not present in database
Track 3 not present in database
Track 4 not present in database
Track 5 not present in database
Track 6 not present in database
Track 7 not present in database
Track 8 not present in database
Track 9 not present in database
Track 10 not present in database
Track 11 not present in database
Track 12 not present in database
Track 13 not present in database

None of the tracks are present in the AccurateRip database

End of status report

–– CUETools DB Plugin V2.1.6

[CTDB TOCID: NZobJ7lh.QhoaPp3rA71IuK8h18-] found
Submit result: NZobJ7lh.QhoaPp3rA71IuK8h18- has been confirmed
Track | CTDB Status
1 | (6/6) Accurately ripped
2 | (6/6) Accurately ripped
3 | (6/6) Accurately ripped
4 | (6/6) Accurately ripped
5 | (6/6) Accurately ripped
6 | (6/6) Accurately ripped
7 | (6/6) Accurately ripped
8 | (6/6) Accurately ripped
9 | (6/6) Accurately ripped
10 | (6/6) Accurately ripped
11 | (6/6) Accurately ripped
12 | (6/6) Accurately ripped
13 | (6/6) Accurately ripped


==== Log checksum F1CE9A47BEC1FC9C1DA57CBA6AC0A877309971C963E77AB2ED32BD958F3F563C ====

[CUETools log; Date: 14.05.2019 14:38:55; Version: 2.1.6]
[CTDB TOCID: NZobJ7lh.QhoaPp3rA71IuK8h18-] found.
Track | CTDB Status
1 | (68/68) Accurately ripped
2 | (68/68) Accurately ripped
3 | (68/68) Accurately ripped
4 | (68/68) Accurately ripped
5 | (68/68) Accurately ripped
6 | (68/68) Accurately ripped
7 | (68/68) Accurately ripped
8 | (67/68) Accurately ripped
9 | (67/68) Accurately ripped
10 | (67/68) Accurately ripped
11 | (67/68) Accurately ripped
12 | (67/68) Accurately ripped
13 | (67/68) Accurately ripped
[AccurateRip ID: 001bdd94-01206743-b10fda0d] found.
Track [ CRC | V2 ] Status
01 [a1a70b5d|164c6b4a] (02+29/33) Accurately ripped
02 [cfe80cbc|c59717f4] (02+29/33) Accurately ripped
03 [a9cc51af|04e96faf] (02+29/33) Accurately ripped
04 [21cb28be|c0d63e79] (02+29/33) Accurately ripped
05 [0d5e2125|7699675f] (02+29/33) Accurately ripped
06 [08f9d973|81106526] (02+29/33) Accurately ripped
07 [a8a24689|f7d4154f] (02+29/33) Accurately ripped
08 [ba770978|e3a21dd6] (02+29/33) Accurately ripped
09 [e9654a3d|ba474f06] (02+29/33) Accurately ripped
10 [8ecd6bed|110bb84f] (02+29/33) Accurately ripped
11 [db118256|c5476b72] (02+29/33) Accurately ripped
12 [da1bbc5a|574afe0e] (02+29/33) Accurately ripped
13 [b19eb0c9|61ec440e] (02+29/33) Accurately ripped
Offsetted by -6:
01 [15181e49] (00/33) No match (V2 was not tested)
02 [63796eb3] (00/33) No match (V2 was not tested)
03 [257a255e] (00/33) No match (V2 was not tested)
04 [0100e4d6] (00/33) No match (V2 was not tested)
05 [5cc5e88f] (00/33) No match (V2 was not tested)
06 [69bfe41e] (00/33) No match (V2 was not tested)
07 [a3bed46c] (00/33) No match (V2 was not tested)
08 [c7ebb059] (00/33) No match (V2 was not tested)
09 [b617428b] (00/33) No match (V2 was not tested)
10 [139bcc7c] (00/33) No match (V2 was not tested)
11 [ab4da8da] (00/33) No match (V2 was not tested)
12 [2714fc4f] (00/33) No match (V2 was not tested)
13 [a3880fc1] (00/33) No match (V2 was not tested)

Track Peak [ CRC32 ] [W/O NULL] [ LOG ]
– 96,8 [4C61F9C9] [5DAC7620] CRC32
01 96,8 [501ED9E1] [3253D657]
02 96,8 [BA9113A7] [894FF7E2]
03 96,8 [03816960] [3FECD7F6]
04 96,8 [F207466B] [DD64C1F4]
05 96,8 [7BAD3F1D] [800E185B]
06 96,8 [B75F18EC] [8CFF705A]
07 96,8 [E07A608C] [CC15185A]
08 96,8 [7185E7DE] [482D8B5D]
09 96,8 [550E2124] [1FEDFF74]
10 46,0 [1FAAC68E] [56710AC6]
11 96,8 [D8C17780] [F47BD727]
12 96,8 [300495AB] [B276EDEB]
13 71,5 [79D86D7B] [57F35761]

SIMO - Let Love Show The Way (2016)


All thanks go to the original ripper(s) …

>>> My Blog <<<

DOWNLOAD: