Subcategories

Samson feat. Bruce Dickinson - Head Tactics (1986) [Japan CD, Burrn! Legendary Masters, 1993]

Posted By: Andi_Deris
Samson feat. Bruce Dickinson - Head Tactics (1986) [Japan CD, Burrn! Legendary Masters, 1993]

Samson feat. Bruce Dickinson - Head Tactics (1986) [Japan CD, Burrn! Legendary Masters, 1993]
EAC Rip | FLAC: Image+Cue+Log | 276 Mb | MP3 CBR 320 kbps | 100 Mb | Scans | 41:58
Toshiba-EMI | TOCP-7976
Hard Rock, Heavy Metal, NWOBHM

Samson was a very cool New Wave of British Heavy Metal (NWOBHM) band that was active from 1977 to 1984, though there were several reunions after that. Iron Maiden rendered Samson a footnote, as mega-vocalist Bruce Dickinson did time with the band prior to hooking up with Eddie’s crew. Early Iron Maiden drummer Clive Burr was in Samson for a bit, too. The 1986 compilation Head Tactics was an effort to profit from Dickinson’s superstar status, which makes sense. It’s a good album and a must have for NWOBHM fans.



Track Listing

01. Vice Versa (3:15)
02. Earth Mother (4:37)
03. Losing My Grip (3:56)
04. Take It Like A Man (4:07)
05. Once Bitten (4:34)
06. Go To Hell (3:17)
07. Hard Times (4:29)
08. Nice Girl (3:25)
09. Too Close To Rock (3:36)
10. Walking Out On You (6:42)

Produced by Samson and Tony Platt

Personnel

• Bruce Dickinson: Lead Vocal
• Paul Samson: Guitars, Vocals
• Chris Aylmer: Bass, Vocals
• Thunderstick: Drums & Percussion

Exact Audio Copy V1.0 beta 3 from 29. August 2011

Отчёт EAC об извлечении, выполненном 21. июня 2012, 15:44

Samson / Head Tactics [TOCP-7976]

Дисковод: Optiarc DVD RW AD-7200A Adapter: 0 ID: 0

Режим чтения : Достоверность
Использование точного потока : Да
Отключение кэша аудио : Да
Использование указателей C2 : Нет

Коррекция смещения при чтении : 48
Способность читать области Lead-in и Lead-out : Нет
Заполнение пропущенных сэмплов тишиной : Да
Удаление блоков с тишиной в начале и конце : Нет
При вычислениях CRC использовались нулевые сэмплы : Да
Интерфейс : Встроенный Win32-интерфейс для Win NT/2000

Выходной формат : Пользовательский кодировщик
Выбранный битрейт : 32 kBit/s
Качество : Высокий
Добавление ID3-тега : Нет
Утилита сжатия : C:\Program Files\Exact Audio Copy\Flac\flac.exe
Дополнительные параметры : -V -8 -T "Date=%year%" -T "Genre=%genre%" %source%

TOC извлечённого CD

Трек | Старт | Длительность | Начальный сектор | Конечный сектор
––––––––––––––––––––––––––––––––––-
1 | 0:00.00 | 3:15.57 | 0 | 14681
2 | 3:15.57 | 4:37.53 | 14682 | 35509
3 | 7:53.35 | 3:56.20 | 35510 | 53229
4 | 11:49.55 | 4:07.47 | 53230 | 71801
5 | 15:57.27 | 4:34.10 | 71802 | 92361
6 | 20:31.37 | 3:17.20 | 92362 | 107156
7 | 23:48.57 | 4:29.03 | 107157 | 127334
8 | 28:17.60 | 3:25.72 | 127335 | 142781
9 | 31:43.57 | 3:36.48 | 142782 | 159029
10 | 35:20.30 | 6:42.02 | 159030 | 189181

Характеристики диапазона извлечения и сообщения об ошибках

Выбранный диапазон

Имя файла Y:\Music\Samson\1986 Head Tactics\Samson - Head Tactics [TOCP-7976].wav

Пиковый уровень 87.9 %
Скорость извлечения 3.6 X
Качество диапазона 100.0 %
CRC теста 35AB14FD
CRC копии 35AB14FD
Копирование… OK

Ошибок не произошло

AccurateRip: сводка

Трек 1 отсутствует в базе данных
Трек 2 отсутствует в базе данных
Трек 3 отсутствует в базе данных
Трек 4 отсутствует в базе данных
Трек 5 отсутствует в базе данных
Трек 6 отсутствует в базе данных
Трек 7 отсутствует в базе данных
Трек 8 отсутствует в базе данных
Трек 9 отсутствует в базе данных
Трек 10 отсутствует в базе данных

Ни одного трека нет в базе AccurateRip

Конец отчёта


Many thanks to the original uploader: ikebana



Password: pass