Tags
Language
Tags

Santana - Caravanserai (1972) Japanese Remastered 2006 [Re-Up]

Posted By: Designol
Santana - Caravanserai (1972) Japanese Remastered 2006 [Re-Up]

Santana - Caravanserai (1972) Japanese Remastered 2006
EAC | FLAC | Tracks (Cue&Log) ~ 331 Mb | Mp3 (CBR320) ~ 118 Mb
Label: Sony Music | # MHCP 1000 | Time: 00:51:24 | Scans ~ 61 Mb
Fusion, Psychedelic Rock, Jazz Rock, Latin Jazz

Drawing on rock, salsa, and jazz, Santana recorded one imaginative, unpredictable gem after another during the 1970s. But Caravanserai is daring even by Santana's high standards. Carlos Santana was obviously very hip to jazz fusion – something the innovative guitarist provides a generous dose of on the largely instrumental Caravanserai. Whether its approach is jazz-rock or simply rock, this album is consistently inspired and quite adventurous. Full of heartfelt, introspective guitar solos, it lacks the immediacy of Santana or Abraxas. Like the type of jazz that influenced it, this pearl (which marked the beginning of keyboardist/composer Tom Coster's highly beneficial membership in the band) requires a number of listenings in order to be absorbed and fully appreciated. But make no mistake: this is one of Santana's finest accomplishments.

Review by Alex Henderson, Allmusic.com

Santana - Caravanserai (1972) Japanese Remastered 2006 [Re-Up]



Tracklist:

01. Eternal Caravan of Reincarnation (04:27)
02. Waves Within (03:53)
03. Look Up (To See What's Coming Down) (02:59)
04. Just in Time to See the Sun (02:18)
05. Song of the Wind (06:02)
06. All the Love of the Universe (07:38)
07. Future Primitive (04:11)
08. Stone Flower (06:14)
09. La Fuente del Ritmo (04:35)
10. Every Step of the Way (09:02)


Exact Audio Copy V1.1 from 23. June 2015

EAC extraction logfile from 7. March 2016, 20:57

Santana / Caravanserai

Used drive : HL-DT-STDVD+-RW GS30N Adapter: 1 ID: 0

Read mode : Secure
Utilize accurate stream : Yes
Defeat audio cache : Yes
Make use of C2 pointers : No

Read offset correction : 667
Overread into Lead-In and Lead-Out : No
Fill up missing offset samples with silence : Yes
Delete leading and trailing silent blocks : No
Null samples used in CRC calculations : Yes
Used interface : Native Win32 interface for Win NT & 2000
Gap handling : Appended to previous track

Used output format : User Defined Encoder
Selected bitrate : 1024 kBit/s
Quality : High
Add ID3 tag : No
Command line compressor : C:\Program Files (x86)\Exact Audio Copy\FLAC\FLAC.EXE
Additional command line options : -6 -V -T "ARTIST=%artist%" -T "TITLE=%title%" -T "ALBUM=%albumtitle%" -T "DATE=%year%" -T "TRACKNUMBER=%tracknr%" -T "GENRE=%genre%" -T "COMMENT=%comment%" -T "BAND=%albuminterpret%" -T "ALBUMARTIST=%albuminterpret%" -T "COMPOSER=%composer%" %haslyrics%–tag-from-file=LYRICS="%lyricsfile%"%haslyrics% -T "DISCNUMBER=%cdnumber%" -T "TOTALDISCS=%totalcds%" -T "TOTALTRACKS=%numtracks%" %hascover%–picture="%coverfile%"%hascover% %source% -o %dest%


TOC of the extracted CD

Track | Start | Length | Start sector | End sector
––––––––––––––––––––––––––––-
1 | 0:00.00 | 4:27.62 | 0 | 20086
2 | 4:27.62 | 3:53.20 | 20087 | 37581
3 | 8:21.07 | 2:59.35 | 37582 | 51041
4 | 11:20.42 | 2:18.23 | 51042 | 61414
5 | 13:38.65 | 6:02.45 | 61415 | 88609
6 | 19:41.35 | 7:38.72 | 88610 | 123031
7 | 27:20.32 | 4:11.60 | 123032 | 141916
8 | 31:32.17 | 6:14.10 | 141917 | 169976
9 | 37:46.27 | 4:35.20 | 169977 | 190621
10 | 42:21.47 | 9:02.20 | 190622 | 231291


Track 1

Filename D:\music\Santana - Caravanserai\01. Santana - Eternal Caravan Of Reincarnation.wav

Pre-gap length 0:00:02.00

Peak level 97.3 %
Extraction speed 2.0 X
Track quality 100.0 %
Test CRC CB0FC4EF
Copy CRC CB0FC4EF
Accurately ripped (confidence 12) [EC1282E8] (AR v2)
Copy OK

Track 2

Filename D:\music\Santana - Caravanserai\02. Santana - Waves Within.wav

Peak level 98.7 %
Extraction speed 3.0 X
Track quality 100.0 %
Test CRC F3B1094B
Copy CRC F3B1094B
Accurately ripped (confidence 12) [100EE2C9] (AR v2)
Copy OK

Track 3

Filename D:\music\Santana - Caravanserai\03. Santana - Look Up (To See What's Coming Down).wav

Peak level 98.7 %
Extraction speed 3.2 X
Track quality 100.0 %
Test CRC 8A9CCCB5
Copy CRC 8A9CCCB5
Accurately ripped (confidence 12) [9D7BE12F] (AR v2)
Copy OK

Track 4

Filename D:\music\Santana - Caravanserai\04. Santana - Just In Time To See The Sun.wav

Peak level 98.7 %
Extraction speed 3.2 X
Track quality 100.0 %
Test CRC 6E69767D
Copy CRC 6E69767D
Accurately ripped (confidence 12) [0D272F0D] (AR v2)
Copy OK

Track 5

Filename D:\music\Santana - Caravanserai\05. Santana - Song Of The Wind.wav

Peak level 98.7 %
Extraction speed 4.0 X
Track quality 100.0 %
Test CRC 13368CCE
Copy CRC 13368CCE
Accurately ripped (confidence 12) [5A0EDFC6] (AR v2)
Copy OK

Track 6

Filename D:\music\Santana - Caravanserai\06. Santana - All The Love In The Universe.wav

Peak level 98.7 %
Extraction speed 4.4 X
Track quality 100.0 %
Test CRC BE9BEE8F
Copy CRC BE9BEE8F
Accurately ripped (confidence 12) [73E59C07] (AR v2)
Copy OK

Track 7

Filename D:\music\Santana - Caravanserai\07. Santana - Future Primitive.wav

Pre-gap length 0:00:02.20

Peak level 98.7 %
Extraction speed 4.5 X
Track quality 100.0 %
Test CRC 7FE43A4D
Copy CRC 7FE43A4D
Accurately ripped (confidence 12) [400B7985] (AR v2)
Copy OK

Track 8

Filename D:\music\Santana - Caravanserai\08. Santana - Stone Flower.wav

Peak level 98.7 %
Extraction speed 4.3 X
Track quality 99.9 %
Test CRC AC90495C
Copy CRC AC90495C
Accurately ripped (confidence 12) [ED1657BC] (AR v2)
Copy OK

Track 9

Filename D:\music\Santana - Caravanserai\09. Santana - La Fuente Del Ritmo.wav

Peak level 98.7 %
Extraction speed 5.0 X
Track quality 100.0 %
Test CRC 2218D3C0
Copy CRC 2218D3C0
Accurately ripped (confidence 12) [731242ED] (AR v2)
Copy OK

Track 10

Filename D:\music\Santana - Caravanserai\10. Santana - Every step of the way.wav

Pre-gap length 0:00:02.45

Peak level 98.7 %
Extraction speed 5.6 X
Track quality 100.0 %
Test CRC 235B2E25
Copy CRC 235B2E25
Accurately ripped (confidence 12) [43502153] (AR v2)
Copy OK


All tracks accurately ripped

No errors occurred

End of status report

–– CUETools DB Plugin V2.1.6

[CTDB TOCID: PLBxC7vwjJlbDQ4rLhY5a._zIb0-] found
Submit result: PLBxC7vwjJlbDQ4rLhY5a._zIb0- has been confirmed
Track | CTDB Status
1 | (12/13) Accurately ripped
2 | (12/13) Accurately ripped
3 | (12/13) Accurately ripped
4 | (12/13) Accurately ripped
5 | (12/13) Accurately ripped
6 | (12/13) Accurately ripped
7 | (12/13) Accurately ripped
8 | (12/13) Accurately ripped
9 | (12/13) Accurately ripped
10 | (12/13) Accurately ripped


==== Log checksum 08474E3F43A3A409B8CF53F0C8D803F57B3D30B7AB28FF7F9A22D4120774AE06 ====

foobar2000 1.2 / Dynamic Range Meter 1.1.1
log date: 2016-03-14 14:41:28

––––––––––––––––––––––––––––––––––––––––
Analyzed: Santana / Caravanserai
––––––––––––––––––––––––––––––––––––––––

DR Peak RMS Duration Track
––––––––––––––––––––––––––––––––––––––––
DR15 -0.23 dB -19.63 dB 4:28 01-Eternal Caravan of Reincarnation
DR9 -0.11 dB -10.81 dB 3:53 02-Waves Within
DR9 -0.11 dB -11.69 dB 2:59 03-Look Up (To See What's Coming Down)
DR8 -0.11 dB -9.80 dB 2:18 04-Just in Time to See the Sun
DR8 -0.11 dB -9.53 dB 6:03 05-Song of the Wind
DR8 -0.11 dB -9.91 dB 7:39 06-All the Love of the Universe
DR11 -0.11 dB -14.96 dB 4:12 07-Future Primitive
DR8 -0.11 dB -10.12 dB 6:14 08-Stone Flower
DR8 -0.11 dB -9.69 dB 4:35 09-La Fuente del Ritmo
DR7 -0.11 dB -9.47 dB 9:02 10-Every Step of the Way
––––––––––––––––––––––––––––––––––––––––

Number of tracks: 10
Official DR value: DR9

Samplerate: 44100 Hz
Channels: 2
Bits per sample: 16
Bitrate: 966 kbps
Codec: FLAC
================================================================================

Santana - Caravanserai (1972) Japanese Remastered 2006 [Re-Up]

Santana - Caravanserai (1972) Japanese Remastered 2006 [Re-Up]

All thanks to original releaser - measet

More interesting music in My Blog