Tags
Language
Tags

Santana - The Best Instrumentals (1997) [Re-Up]

Posted By:
Santana - The Best Instrumentals (1997) [Re-Up]

Santana - The Best Instrumentals (1997)
EAC | FLAC | Image (Cue&Log) ~ 409 Mb | Mp3 (CBR320) ~ 179 Mb | Scans included
Label: Sony Music Media | # SMM 486863 2 | Time: 01:11:17
Instrumental Guitar Rock, Blues-Rock, Latin Rock, Fusion

Picking out the best instrumentals from Carlos Santana's thirty-year recording career is a daunting task at best, and a fan can certainly find reasons to disagree with some of the choices made in this collection. However, this German release is valuable in bringing together undisputed Santana classic guitar pieces like "Europa (Earth's Cry Heaven's Smile)," "Samba Pa Ti," "Flor D'Luna (Moonflower)" and "Soul Sacrifice" with lesser known masterworks like "Aqua Marine" and the superb "Song of the Wind." True, there's no "Toussaint L'Ouverture" or "Incident at Neshabur," but how would you like to have to narrow this long-lived band's catalog down to fifteen tracks? Besides, the true fan already has the original albums and earlier compilations. One thing made obvious by this sampler of tracks recorded between 1969 and 1990 is that the later stuff with artificial keyboards, like "Love is You" and "Blues For Salvador" from the late '80s, just doesn't have as much soul as the earlier, more organic material. But that's a technological issue. This disc takes its listeners on a high intensity trip through time on the spiritual wings of Carlos Santana's soaring electric guitar. It's a trip worth taking.

Review by Jim Newsom, Allmusic.com

Santana - The Best Instrumentals (1997) [Re-Up]



Tracklist:

01. Samba pa ti (04:34)
02. Europa (Earth's Cry Heaven's Smile) (05:01)
03. I Love You Much Too Much (04:41)
04. Aqua Marine (05:29)
05. Bella (04:29)
06. Flor D'Luna (Moonflower) (04:48)
07. Life Is a Lady / Holiday (03:48)
08. Full Moon (04:30)
09. Song of the Wind (06:12)
10. Tales of Kilimanjaro (03:25)
11. Love is You (03:57)
12. Guru's Song (03:02)
13. Treat (04:42)
14. Blues for Salvador (05:58)
15. Soul Sacrifice (06:36)


Exact Audio Copy V1.0 beta 6 from 9. April 2015

Отчёт EAC об извлечении, выполненном 13. января 2016, 18:23

Santana / The Best Instrumentals

Дисковод: ASUS DRW-24F1ST a Adapter: 1 ID: 0

Режим чтения : Достоверность
Использование точного потока : Да
Отключение кэша аудио : Да
Использование указателей C2 : Нет

Коррекция смещения при чтении : 6
Способность читать области Lead-in и Lead-out : Нет
Заполнение пропущенных сэмплов тишиной : Да
Удаление блоков с тишиной в начале и конце : Нет
При вычислениях CRC использовались нулевые сэмплы : Да
Интерфейс : Встроенный Win32-интерфейс для Win NT/2000

Выходной формат : Пользовательский кодировщик
Выбранный битрейт : 768 kBit/s
Качество : Высокий
Добавление ID3-тега : Нет
Утилита сжатия : C:\Program Files (x86)\Exact Audio Copy\FLAC\FLAC.EXE
Дополнительные параметры : -6 -V -T "ARTIST=%artist%" -T "TITLE=%title%" -T "ALBUM=%albumtitle%" -T "DATE=%year%" -T "TRACKNUMBER=%tracknr%" -T "GENRE=%genre%" -T "COMMENT=%comment%" -T "BAND=%albuminterpret%" -T "ALBUMARTIST=%albuminterpret%" -T "COMPOSER=%composer%" %haslyrics%–tag-from-file=LYRICS="%lyricsfile%"%haslyrics% -T "DISCNUMBER=%cdnumber%" -T "TOTALDISCS=%totalcds%" -T "TOTALTRACKS=%numtracks%" %hascover%–picture="%coverfile%"%hascover% %source% -o %dest%


TOC извлечённого CD

Трек | Старт | Длительность | Начальный сектор | Конечный сектор
––––––––––––––––––––––––––––––––––-
1 | 0:00.00 | 4:34.00 | 0 | 20549
2 | 4:34.00 | 5:01.25 | 20550 | 43149
3 | 9:35.25 | 4:41.25 | 43150 | 64249
4 | 14:16.50 | 5:29.12 | 64250 | 88936
5 | 19:45.62 | 4:29.13 | 88937 | 109124
6 | 24:15.00 | 4:48.12 | 109125 | 130736
7 | 29:03.12 | 3:48.25 | 130737 | 147861
8 | 32:51.37 | 4:30.50 | 147862 | 168161
9 | 37:22.12 | 6:12.13 | 168162 | 196074
10 | 43:34.25 | 3:25.12 | 196075 | 211461
11 | 46:59.37 | 3:57.63 | 211462 | 229299
12 | 50:57.25 | 3:02.25 | 229300 | 242974
13 | 53:59.50 | 4:42.62 | 242975 | 264186
14 | 58:42.37 | 5:58.13 | 264187 | 291049
15 | 64:40.50 | 6:36.57 | 291050 | 320806


Характеристики диапазона извлечения и сообщения об ошибках

Выбранный диапазон

Имя файла D:\Santana - The Best Instrumentals (1997)\Santana - The Best Instrumentals.wav

Пиковый уровень 98.2 %
Скорость извлечения 3.5 X
Качество диапазона 100.0 %
CRC теста B79DC3C4
CRC копии B79DC3C4
Копирование… OK

Ошибок не произошло


AccurateRip: сводка

Трек 1 : извлечено точно (доверие 4) [FE9CA5C4] (AR v2)
Трек 2 : извлечено точно (доверие 4) [96CD50CE] (AR v2)
Трек 3 : извлечено точно (доверие 4) [CCF348DE] (AR v2)
Трек 4 : извлечено точно (доверие 4) [8E3A5525] (AR v2)
Трек 5 : извлечено точно (доверие 4) [A9BDD1AE] (AR v2)
Трек 6 : извлечено точно (доверие 4) [34621884] (AR v2)
Трек 7 : извлечено точно (доверие 4) [927D9FD7] (AR v2)
Трек 8 : извлечено точно (доверие 4) [376D883A] (AR v2)
Трек 9 : извлечено точно (доверие 4) [629101D5] (AR v2)
Трек 10 : извлечено точно (доверие 4) [4ED1C469] (AR v2)
Трек 11 : извлечено точно (доверие 4) [98D769CF] (AR v2)
Трек 12 : извлечено точно (доверие 4) [B993DE50] (AR v2)
Трек 13 : извлечено точно (доверие 4) [998A0CAE] (AR v2)
Трек 14 : извлечено точно (доверие 4) [F41655D8] (AR v2)
Трек 15 : извлечено точно (доверие 3) [18DD2FCC] (AR v2)

Все треки извлечены точно

Конец отчёта

==== Контрольная сумма отчёта 437CA1601CBD3B3FA615F3D764612F3E365BF69B1C786B0D2F2635AA516E2A66 ====

foobar2000 1.2 / Dynamic Range Meter 1.1.1
log date: 2016-01-15 21:44:14

––––––––––––––––––––––––––––––––––––––––
Analyzed: Santana / The Best Instrumentals
––––––––––––––––––––––––––––––––––––––––

DR Peak RMS Duration Track
––––––––––––––––––––––––––––––––––––––––
DR11 -0.17 dB -13.66 dB 4:34 01-Samba pa ti
DR10 -0.17 dB -13.16 dB 5:01 02-Europa (Earth's Cry Heaven's Smile)
DR12 -0.17 dB -15.23 dB 4:41 03-I Love You Much Too Much
DR17 -0.17 dB -20.90 dB 5:29 04-Aqua Marine
DR13 -0.17 dB -16.01 dB 4:29 05-Bella
DR12 -0.17 dB -14.56 dB 4:48 06-Flor D'Luna (Moonflower)
DR14 -0.18 dB -18.35 dB 3:48 07-Life Is a Lady / Holiday
DR10 -0.17 dB -13.33 dB 4:31 08-Full Moon
DR12 -0.48 dB -15.42 dB 6:12 09-Song of the Wind
DR14 -0.44 dB -16.90 dB 3:25 10-Tales of Kilimanjaro
DR12 -1.61 dB -15.68 dB 3:58 11-Love is You
DR12 -0.41 dB -16.03 dB 3:02 12-Guru's Song
DR14 -0.15 dB -18.46 dB 4:43 13-Treat
DR11 -2.76 dB -16.57 dB 5:58 14-Blues for Salvador
DR12 -0.27 dB -14.64 dB 6:37 15-Soul Sacrifice
––––––––––––––––––––––––––––––––––––––––

Number of tracks: 15
Official DR value: DR12

Samplerate: 44100 Hz
Channels: 2
Bits per sample: 16
Bitrate: 772 kbps
Codec: FLAC
================================================================================

Santana - The Best Instrumentals (1997) [Re-Up]

Santana - The Best Instrumentals (1997) [Re-Up]

All thanks to original releaser - lukya

More interesting music in My Blog