Tags
Language
Tags

Satriani, Vai, Petrucci - G3: Live In Tokyo (2005)

Posted By: popsakov
Satriani, Vai, Petrucci - G3: Live In Tokyo (2005)

Satriani, Vai, Petrucci - G3: Live In Tokyo (2005)
2CD | EAC Rip | FLAC (Tracks) + Cue + m3u8 + Log ~ 732 Mb | MP3 CBR320 ~ 248 Mb
Full Scans | 00:41:43 + 00:54:23 | RAR 5% Recovery
Hard Rock / Blues Rock / Guitar Virtuoso / Instrumental Rock
Sony BMG Music Entertainment / Epic #82876742442

Throughout its nearly decade-long run, the G3 series of tours has always featured guitar wizards Satriani and Vai at the helm, with a mystery third guest always in the rotation to contrast against the mentor-and-student duo. Sometimes the results are complementary (Eric Johnson), and other times they're mildy theatrical and amusing (Yngwie Malmsteen). This time around the special guest star, Dream Theater's John Petrucci, finds himself in the middle of Tokyo and starting off the two-disc session. His "Glasgow Kiss" and "Damage Control" are both presented with great skill and technical precision, sometimes hitting too close to the mark, making his accuracy and his performance seem cold and calculated. Still, he's exponentially more accessible than the flamboyant Yngwie and he sticks to the basics of delivering a solid performance. Vai also delivers a solid performance with a rousing rendition of his most well-known solo outing "The Audience Is Listening." Unfortunately, the hysterical teacher's voice is missing and somewhat detracts from the song's charm, but it's a minor complaint few would gripe about. "K'M-Pee-Du-Wee" is extended and has never sounded better, especially as Vai stretches out and delivers more of an improvisational element to the more atmospheric parts of the song. And finally, Satriani takes the stage and presents three extremely eclectic selections from his catalog, culminating in the intensity of his anthem "War" off of his 1992 epic The Extremist. The session ends with a three-song cover jam led mainly by Satriani that features ZZ Top's "La Grange," Jimi Hendrix's "Foxey Lady" and Deep Purple's "Smoke on the Water." It's not the best G3 lineup ever, but it's far from the worst and guitar fanatics the world over will no doubt thoroughly enjoy it.

~ Rob Theakston, All Music

***************

Track List CD1:

01. John Petrucci / Glasgow Kiss (Live) [9:19]
02. John Petrucci / Damage Control (Live) [10:32]
03. Steve Vai / The Audience Is Listening (Live) [9:00]
04. Steve Vai / Building The Church (Live) [6:10]
05. Steve Vai / K'm-Pee-Du-Wee (Live) [6:45]

Exact Audio Copy V1.3 from 2. September 2016

EAC extraction logfile from 16. December 2016, 13:23

G3 feat. Joe Satriani, Steve Vai & John Petrucci / Live In Tokyo

Used drive : Optiarc DVD RW AD-7250H Adapter: 1 ID: 0

Read mode : Secure
Utilize accurate stream : Yes
Defeat audio cache : Yes
Make use of C2 pointers : No

Read offset correction : 48
Overread into Lead-In and Lead-Out : No
Fill up missing offset samples with silence : Yes
Delete leading and trailing silent blocks : No
Null samples used in CRC calculations : Yes
Used interface : Native Win32 interface for Win NT & 2000
Gap handling : Appended to previous track

Used output format : User Defined Encoder
Selected bitrate : 1024 kBit/s
Quality : High
Add ID3 tag : No
Command line compressor : C:\Program Files (x86)\Exact Audio Copy\Flac\flac.exe
Additional command line options : -8 -e -p -V -T "ARTIST=%artist%" -T "TITLE=%title%" -T "ALBUM=%albumtitle%" -T "DATE=%year%" -T "TRACKNUMBER=%tracknr%" -T "GENRE=%genre%" -T "PERFORMER=%albuminterpret%" -T "COMPOSER=%composer%" %haslyrics%–tag-from-file=LYRICS="%lyricsfile%"%haslyrics% -T "ALBUMARTIST=%albumartist%" -T "DISCNUMBER=%cdnumber%" -T "TOTALDISCS=%totalcds%" -T "TOTALTRACKS=%numtracks%" -T "COMMENT=%comment%" %source% -o %dest%


TOC of the extracted CD

Track | Start | Length | Start sector | End sector
––––––––––––––––––––––––––––-
1 | 0:00.00 | 9:18.20 | 0 | 41869
2 | 9:18.20 | 10:31.39 | 41870 | 89233
3 | 19:49.59 | 8:59.56 | 89234 | 129714
4 | 28:49.40 | 6:09.03 | 129715 | 157392
5 | 34:58.43 | 6:44.19 | 157393 | 187711


Track 1

Filename C:\EAC Rips\G3 - Live In Tokyo\01_John_Petrucci_,_Glasgow_Kiss_(Live).wav

Pre-gap length 0:00:02.00

Peak level 100.0 %
Extraction speed 2.7 X
Track quality 100.0 %
Test CRC D0CF1EB1
Copy CRC D0CF1EB1
Accurately ripped (confidence 14) [58BC1EB4] (AR v2)
Copy OK

Track 2

Filename C:\EAC Rips\G3 - Live In Tokyo\02_John_Petrucci_,_Damage_Control_(Live).wav

Peak level 100.0 %
Extraction speed 3.3 X
Track quality 100.0 %
Test CRC 2308BAF0
Copy CRC 2308BAF0
Accurately ripped (confidence 14) [EDA15A76] (AR v2)
Copy OK

Track 3

Filename C:\EAC Rips\G3 - Live In Tokyo\03_Steve_Vai_,_The_Audience_Is_Listening_(Live).wav

Peak level 100.0 %
Extraction speed 3.8 X
Track quality 100.0 %
Test CRC CE2C24D2
Copy CRC CE2C24D2
Accurately ripped (confidence 14) [4598E257] (AR v2)
Copy OK

Track 4

Filename C:\EAC Rips\G3 - Live In Tokyo\04_Steve_Vai_,_Building_The_Church_(Live).wav

Peak level 100.0 %
Extraction speed 4.0 X
Track quality 100.0 %
Test CRC 4467D0BF
Copy CRC 4467D0BF
Accurately ripped (confidence 14) [9D4FED5F] (AR v2)
Copy OK

Track 5

Filename C:\EAC Rips\G3 - Live In Tokyo\05_Steve_Vai_,_K'm-Pee-Du-Wee_(Live).wav

Peak level 100.0 %
Extraction speed 4.3 X
Track quality 100.0 %
Test CRC 3B89A9A9
Copy CRC 3B89A9A9
Accurately ripped (confidence 14) [22FC1471] (AR v2)
Copy OK


All tracks accurately ripped

No errors occurred

End of status report

==== Log checksum FD8D5C2CBA86C77B2B2DB8DFBE5E607167AE8F669A058B44E8622783022D2FEA ====

––––––––––––––––––––––––––––––

Exact Audio Copy V1.3 from 2. September 2016

EAC extraction logfile from 16. December 2016, 13:23

G3 feat. Joe Satriani, Steve Vai & John Petrucci / Live In Tokyo

Used drive : Optiarc DVD RW AD-7250H Adapter: 1 ID: 0

Read mode : Secure
Utilize accurate stream : Yes
Defeat audio cache : Yes
Make use of C2 pointers : No

Read offset correction : 48
Overread into Lead-In and Lead-Out : No
Fill up missing offset samples with silence : Yes
Delete leading and trailing silent blocks : No
Null samples used in CRC calculations : Yes
Used interface : Native Win32 interface for Win NT & 2000
Gap handling : Appended to previous track

Used output format : User Defined Encoder
Selected bitrate : 1024 kBit/s
Quality : High
Add ID3 tag : No
Command line compressor : C:\Program Files (x86)\Exact Audio Copy\Flac\flac.exe
Additional command line options : -8 -e -p -V -T "ARTIST=%artist%" -T "TITLE=%title%" -T "ALBUM=%albumtitle%" -T "DATE=%year%" -T "TRACKNUMBER=%tracknr%" -T "GENRE=%genre%" -T "PERFORMER=%albuminterpret%" -T "COMPOSER=%composer%" %haslyrics%–tag-from-file=LYRICS="%lyricsfile%"%haslyrics% -T "ALBUMARTIST=%albumartist%" -T "DISCNUMBER=%cdnumber%" -T "TOTALDISCS=%totalcds%" -T "TOTALTRACKS=%numtracks%" -T "COMMENT=%comment%" %source% -o %dest%


TOC of the extracted CD

Track | Start | Length | Start sector | End sector
––––––––––––––––––––––––––––-
1 | 0:00.00 | 9:18.20 | 0 | 41869
2 | 9:18.20 | 10:31.39 | 41870 | 89233
3 | 19:49.59 | 8:59.56 | 89234 | 129714
4 | 28:49.40 | 6:09.03 | 129715 | 157392
5 | 34:58.43 | 6:44.19 | 157393 | 187711


Track 1

Filename C:\EAC Rips\G3 - Live In Tokyo\01_John_Petrucci_,_Glasgow_Kiss_(Live).wav

Pre-gap length 0:00:02.00

Peak level 100.0 %
Extraction speed 2.7 X
Track quality 100.0 %
Test CRC D0CF1EB1
Copy CRC D0CF1EB1
Accurately ripped (confidence 14) [58BC1EB4] (AR v2)
Copy OK

Track 2

Filename C:\EAC Rips\G3 - Live In Tokyo\02_John_Petrucci_,_Damage_Control_(Live).wav

Peak level 100.0 %
Extraction speed 3.3 X
Track quality 100.0 %
Test CRC 2308BAF0
Copy CRC 2308BAF0
Accurately ripped (confidence 14) [EDA15A76] (AR v2)
Copy OK

Track 3

Filename C:\EAC Rips\G3 - Live In Tokyo\03_Steve_Vai_,_The_Audience_Is_Listening_(Live).wav

Peak level 100.0 %
Extraction speed 3.8 X
Track quality 100.0 %
Test CRC CE2C24D2
Copy CRC CE2C24D2
Accurately ripped (confidence 14) [4598E257] (AR v2)
Copy OK

Track 4

Filename C:\EAC Rips\G3 - Live In Tokyo\04_Steve_Vai_,_Building_The_Church_(Live).wav

Peak level 100.0 %
Extraction speed 4.0 X
Track quality 100.0 %
Test CRC 4467D0BF
Copy CRC 4467D0BF
Accurately ripped (confidence 14) [9D4FED5F] (AR v2)
Copy OK

Track 5

Filename C:\EAC Rips\G3 - Live In Tokyo\05_Steve_Vai_,_K'm-Pee-Du-Wee_(Live).wav

Peak level 100.0 %
Extraction speed 4.3 X
Track quality 100.0 %
Test CRC 3B89A9A9
Copy CRC 3B89A9A9
Accurately ripped (confidence 14) [22FC1471] (AR v2)
Copy OK


All tracks accurately ripped

No errors occurred

End of status report

==== Log checksum FD8D5C2CBA86C77B2B2DB8DFBE5E607167AE8F669A058B44E8622783022D2FEA ====

Track List CD2:

01. Joe Satriani/Up In Flames [8:57]
02. Joe Satriani/Searching [8:45]
03. Joe Satriani/War [6:38]
04. G3 Jam/Foxey Lady(Jimi Hendrix Cover) [10:44]
05. G3 Jam/La Grange(ZZ Top Cover) [9:19]
06. G3 Jam/Smoke On The Water(Deep Purple Cover) [10:02]

Exact Audio Copy V1.3 from 2. September 2016

EAC extraction logfile from 16. December 2016, 14:09

G3 feat Joe Satriani, Steve Vai & John Petrucci / Live In Tokyo (Disc-2)

Used drive : Optiarc DVD RW AD-7250H Adapter: 1 ID: 0

Read mode : Secure
Utilize accurate stream : Yes
Defeat audio cache : Yes
Make use of C2 pointers : No

Read offset correction : 48
Overread into Lead-In and Lead-Out : No
Fill up missing offset samples with silence : Yes
Delete leading and trailing silent blocks : No
Null samples used in CRC calculations : Yes
Used interface : Native Win32 interface for Win NT & 2000
Gap handling : Appended to previous track

Used output format : User Defined Encoder
Selected bitrate : 1024 kBit/s
Quality : High
Add ID3 tag : No
Command line compressor : C:\Program Files (x86)\Exact Audio Copy\Flac\flac.exe
Additional command line options : -8 -e -p -V -T "ARTIST=%artist%" -T "TITLE=%title%" -T "ALBUM=%albumtitle%" -T "DATE=%year%" -T "TRACKNUMBER=%tracknr%" -T "GENRE=%genre%" -T "PERFORMER=%albuminterpret%" -T "COMPOSER=%composer%" %haslyrics%–tag-from-file=LYRICS="%lyricsfile%"%haslyrics% -T "ALBUMARTIST=%albumartist%" -T "DISCNUMBER=%cdnumber%" -T "TOTALDISCS=%totalcds%" -T "TOTALTRACKS=%numtracks%" -T "COMMENT=%comment%" %source% -o %dest%


TOC of the extracted CD

Track | Start | Length | Start sector | End sector
––––––––––––––––––––––––––––-
1 | 0:00.00 | 8:56.25 | 0 | 40224
2 | 8:56.25 | 8:44.57 | 40225 | 79581
3 | 17:41.07 | 6:37.39 | 79582 | 109395
4 | 24:18.46 | 10:43.56 | 109396 | 157676
5 | 35:02.27 | 9:18.66 | 157677 | 199592
6 | 44:21.18 | 10:01.54 | 199593 | 244721


Track 1

Filename C:\EAC Rips\G3 - Live In Tokyo\CD 2\01_Joe_Satriani,Up_In_Flames.wav

Pre-gap length 0:00:02.00

Peak level 100.0 %
Extraction speed 2.7 X
Track quality 100.0 %
Test CRC 03267F7D
Copy CRC 03267F7D
Accurately ripped (confidence 14) [48554739] (AR v2)
Copy OK

Track 2

Filename C:\EAC Rips\G3 - Live In Tokyo\CD 2\02_Joe_Satriani,Searching.wav

Peak level 100.0 %
Extraction speed 3.3 X
Track quality 100.0 %
Test CRC 7F598EA7
Copy CRC 7F598EA7
Accurately ripped (confidence 14) [90E9D3E2] (AR v2)
Copy OK

Track 3

Filename C:\EAC Rips\G3 - Live In Tokyo\CD 2\03_Joe_Satriani,War.wav

Peak level 100.0 %
Extraction speed 3.6 X
Track quality 100.0 %
Test CRC A19EE9C8
Copy CRC A19EE9C8
Accurately ripped (confidence 14) [7269E20C] (AR v2)
Copy OK

Track 4

Filename C:\EAC Rips\G3 - Live In Tokyo\CD 2\04_G3_Jam,Foxey_Lady(Jimi_Hendrix_Cover).wav

Peak level 100.0 %
Extraction speed 4.0 X
Track quality 99.9 %
Test CRC F8767965
Copy CRC F8767965
Accurately ripped (confidence 14) [4BEDF0CC] (AR v2)
Copy OK

Track 5

Filename C:\EAC Rips\G3 - Live In Tokyo\CD 2\05_G3_Jam,La_Grange(ZZ_Top_Cover).wav

Peak level 100.0 %
Extraction speed 4.6 X
Track quality 100.0 %
Test CRC 2A87BA7F
Copy CRC 2A87BA7F
Accurately ripped (confidence 14) [7C56B4E3] (AR v2)
Copy OK

Track 6

Filename C:\EAC Rips\G3 - Live In Tokyo\CD 2\06_G3_Jam,Smoke_On_The_Water(Deep_Purple_Cover).wav

Peak level 100.0 %
Extraction speed 5.0 X
Track quality 100.0 %
Test CRC 10E270DD
Copy CRC 10E270DD
Accurately ripped (confidence 14) [A7EEEDC6] (AR v2)
Copy OK


All tracks accurately ripped

No errors occurred

End of status report

==== Log checksum D526CE090326E06AABBFFDA9EE3478FD5DABDDF17E95CFCACC336C1BC4B0AF49 ====

––––––––––––––––––––––––––––––

Exact Audio Copy V1.3 from 2. September 2016

EAC extraction logfile from 16. December 2016, 14:09

G3 feat Joe Satriani, Steve Vai & John Petrucci / Live In Tokyo (Disc-2)

Used drive : Optiarc DVD RW AD-7250H Adapter: 1 ID: 0

Read mode : Secure
Utilize accurate stream : Yes
Defeat audio cache : Yes
Make use of C2 pointers : No

Read offset correction : 48
Overread into Lead-In and Lead-Out : No
Fill up missing offset samples with silence : Yes
Delete leading and trailing silent blocks : No
Null samples used in CRC calculations : Yes
Used interface : Native Win32 interface for Win NT & 2000
Gap handling : Appended to previous track

Used output format : User Defined Encoder
Selected bitrate : 1024 kBit/s
Quality : High
Add ID3 tag : No
Command line compressor : C:\Program Files (x86)\Exact Audio Copy\Flac\flac.exe
Additional command line options : -8 -e -p -V -T "ARTIST=%artist%" -T "TITLE=%title%" -T "ALBUM=%albumtitle%" -T "DATE=%year%" -T "TRACKNUMBER=%tracknr%" -T "GENRE=%genre%" -T "PERFORMER=%albuminterpret%" -T "COMPOSER=%composer%" %haslyrics%–tag-from-file=LYRICS="%lyricsfile%"%haslyrics% -T "ALBUMARTIST=%albumartist%" -T "DISCNUMBER=%cdnumber%" -T "TOTALDISCS=%totalcds%" -T "TOTALTRACKS=%numtracks%" -T "COMMENT=%comment%" %source% -o %dest%


TOC of the extracted CD

Track | Start | Length | Start sector | End sector
––––––––––––––––––––––––––––-
1 | 0:00.00 | 8:56.25 | 0 | 40224
2 | 8:56.25 | 8:44.57 | 40225 | 79581
3 | 17:41.07 | 6:37.39 | 79582 | 109395
4 | 24:18.46 | 10:43.56 | 109396 | 157676
5 | 35:02.27 | 9:18.66 | 157677 | 199592
6 | 44:21.18 | 10:01.54 | 199593 | 244721


Track 1

Filename C:\EAC Rips\G3 - Live In Tokyo\CD 2\01_Joe_Satriani,Up_In_Flames.wav

Pre-gap length 0:00:02.00

Peak level 100.0 %
Extraction speed 2.7 X
Track quality 100.0 %
Test CRC 03267F7D
Copy CRC 03267F7D
Accurately ripped (confidence 14) [48554739] (AR v2)
Copy OK

Track 2

Filename C:\EAC Rips\G3 - Live In Tokyo\CD 2\02_Joe_Satriani,Searching.wav

Peak level 100.0 %
Extraction speed 3.3 X
Track quality 100.0 %
Test CRC 7F598EA7
Copy CRC 7F598EA7
Accurately ripped (confidence 14) [90E9D3E2] (AR v2)
Copy OK

Track 3

Filename C:\EAC Rips\G3 - Live In Tokyo\CD 2\03_Joe_Satriani,War.wav

Peak level 100.0 %
Extraction speed 3.6 X
Track quality 100.0 %
Test CRC A19EE9C8
Copy CRC A19EE9C8
Accurately ripped (confidence 14) [7269E20C] (AR v2)
Copy OK

Track 4

Filename C:\EAC Rips\G3 - Live In Tokyo\CD 2\04_G3_Jam,Foxey_Lady(Jimi_Hendrix_Cover).wav

Peak level 100.0 %
Extraction speed 4.0 X
Track quality 99.9 %
Test CRC F8767965
Copy CRC F8767965
Accurately ripped (confidence 14) [4BEDF0CC] (AR v2)
Copy OK

Track 5

Filename C:\EAC Rips\G3 - Live In Tokyo\CD 2\05_G3_Jam,La_Grange(ZZ_Top_Cover).wav

Peak level 100.0 %
Extraction speed 4.6 X
Track quality 100.0 %
Test CRC 2A87BA7F
Copy CRC 2A87BA7F
Accurately ripped (confidence 14) [7C56B4E3] (AR v2)
Copy OK

Track 6

Filename C:\EAC Rips\G3 - Live In Tokyo\CD 2\06_G3_Jam,Smoke_On_The_Water(Deep_Purple_Cover).wav

Peak level 100.0 %
Extraction speed 5.0 X
Track quality 100.0 %
Test CRC 10E270DD
Copy CRC 10E270DD
Accurately ripped (confidence 14) [A7EEEDC6] (AR v2)
Copy OK


All tracks accurately ripped

No errors occurred

End of status report

==== Log checksum D526CE090326E06AABBFFDA9EE3478FD5DABDDF17E95CFCACC336C1BC4B0AF49 ====

All thanks go to the original ripper(s) …

>>> My Blog <<<

DOWNLOAD: