Tags
Language
Tags

Saxon - Rock 'n' Roll Gypsies (1989)

Posted By: v3122
Saxon - Rock 'n' Roll Gypsies (1989)

Saxon - Rock 'n' Roll Gypsies (1989)
EAC | Flac(Image) + Cue + Log & MP3 CBR 320Kbps
Enigma , 7 73370-2 | ~ 425 or 152 Mb | Scans(jpg) -> 21 Mb
Heavy Metal

Rock 'n' Roll Gypsies is the second live album by the band Saxon, released in 1989 by Roadrunner Records. It was the first album produced by Biff Byford and the first work with the bass guitarist Nibbs Carter. In addition it was the drummer Nigel Glockler's return to the band. In 2001, it was re-released with a different cover and two additional tracks, and with production credited to the whole band and not just to Byford…

~ wiki
Saxon - Rock 'n' Roll Gypsies (1989)


Saxon - Rock 'n' Roll Gypsies (1989):

Saxon - Rock 'n' Roll Gypsies (1989)

Tracklist:

1. Power And The Glory
2. And The Bands Played On
3. Rock The Nations
4. Dallas 1 PM
5. Broken Heroes
6. Battle Cry
7. Rock 'n' Roll Gypsy
8. Northern Lady
9. I Can't Wait Anymore
10. This Town Rocks
11. The Eagle Has Landed
12. Just Let Me Rock

Exact Audio Copy V1.1 from 23. June 2015

EAC extraction logfile from 13. April 2017, 8:59

Saxon / Rock 'n' Roll Gypsies

Used drive : ASUS DRW-24B1ST Adapter: 1 ID: 1

Read mode : Secure
Utilize accurate stream : Yes
Defeat audio cache : Yes
Make use of C2 pointers : No

Read offset correction : 6
Overread into Lead-In and Lead-Out : No
Fill up missing offset samples with silence : Yes
Delete leading and trailing silent blocks : No
Null samples used in CRC calculations : Yes
Used interface : Native Win32 interface for Win NT & 2000

Used output format : User Defined Encoder
Selected bitrate : 1024 kBit/s
Quality : High
Add ID3 tag : No
Command line compressor : C:\Program Files (x86)\Exact Audio Copy\Flac\flac.exe
Additional command line options : -V -8 -T "Date=%year%" -T "Genre=%genre%" %source%


TOC of the extracted CD

Track | Start | Length | Start sector | End sector
––––––––––––––––––––––––––––-
1 | 0:00.50 | 6:27.52 | 50 | 29126
2 | 6:28.27 | 2:55.50 | 29127 | 42301
3 | 9:24.02 | 4:31.63 | 42302 | 62689
4 | 13:55.65 | 6:38.15 | 62690 | 92554
5 | 20:34.05 | 7:04.40 | 92555 | 124394
6 | 27:38.45 | 5:49.47 | 124395 | 150616
7 | 33:28.17 | 5:18.10 | 150617 | 174476
8 | 38:46.27 | 5:07.35 | 174477 | 197536
9 | 43:53.62 | 4:31.03 | 197537 | 217864
10 | 48:24.65 | 4:13.62 | 217865 | 236901
11 | 52:38.52 | 7:26.65 | 236902 | 270416
12 | 60:05.42 | 4:19.13 | 270417 | 289854


Range status and errors

Selected range

Filename E:\Torrent\# MY\# Подготовка раздач\Saxon\1989 - Rock 'n' Roll Gypsies (Enigma Records, 7 73370-2, U.S.A.)\Saxon - Rock 'n' Roll Gypsies.wav

Peak level 100.0 %
Extraction speed 5.9 X
Range quality 100.0 %
Test CRC B8D27723
Copy CRC B8D27723
Copy OK

No errors occurred


AccurateRip summary

Track 1 accurately ripped (confidence 4) [42A268CE] (AR v2)
Track 2 accurately ripped (confidence 4) [8ECC1699] (AR v2)
Track 3 accurately ripped (confidence 4) [5E483804] (AR v2)
Track 4 accurately ripped (confidence 4) [5EA59F83] (AR v2)
Track 5 accurately ripped (confidence 4) [9480D669] (AR v2)
Track 6 accurately ripped (confidence 4) [9201A295] (AR v2)
Track 7 accurately ripped (confidence 4) [24561523] (AR v2)
Track 8 accurately ripped (confidence 4) [DFEE9E3C] (AR v2)
Track 9 accurately ripped (confidence 4) [A05DCDAE] (AR v2)
Track 10 accurately ripped (confidence 4) [966824F9] (AR v2)
Track 11 accurately ripped (confidence 4) [1A2F5F6F] (AR v2)
Track 12 accurately ripped (confidence 4) [B581263F] (AR v2)

All tracks accurately ripped

End of status report

–– CUETools DB Plugin V2.1.6

[CTDB TOCID: i2gQH7sI7vCeA83FGCsvJWd.1UU-] found
Submit result: i2gQH7sI7vCeA83FGCsvJWd.1UU- has been confirmed
Track | CTDB Status
1 | (2/2) Accurately ripped
2 | (2/2) Accurately ripped
3 | (2/2) Accurately ripped
4 | (2/2) Accurately ripped
5 | (2/2) Accurately ripped
6 | (2/2) Accurately ripped
7 | (2/2) Accurately ripped
8 | (2/2) Accurately ripped
9 | (2/2) Accurately ripped
10 | (2/2) Accurately ripped
11 | (2/2) Accurately ripped
12 | (1/2) Accurately ripped, or (1/2) differs in 5 samples @00:44:18


==== Log checksum 16B9F3EF921C5A6CE2BD95BD122A4CF19D81C772454EFF78212C9F5CFB589912 ====

foobar2000 1.2.9 / Dynamic Range Meter 1.1.1
log date: 2017-07-03 18:27:02

––––––––––––––––––––––––––––––––––––––––
Analyzed: Saxon / Rock 'n' Roll Gypsies
––––––––––––––––––––––––––––––––––––––––

DR Peak RMS Duration Track
––––––––––––––––––––––––––––––––––––––––
DR11 -1.43 dB -14.62 dB 6:28 01-Power And The Glory
DR11 -2.07 dB -14.96 dB 2:56 02-And The Bands Played On
DR12 -2.19 dB -14.84 dB 4:32 03-Rock The Nations
DR11 -2.11 dB -15.12 dB 6:38 04-Dallas 1 PM
DR11 -1.33 dB -16.23 dB 7:05 05-Broken Heroes
DR12 -1.41 dB -14.94 dB 5:50 06-Battle Cry
DR12 -0.68 dB -15.08 dB 5:18 07-Rock 'n' Roll Gypsy
DR12 0.00 dB -16.87 dB 5:07 08-Northern Lady
DR13 0.00 dB -14.68 dB 4:31 09-I Can't Wait Anymore
DR11 -2.27 dB -14.69 dB 4:14 10-This Town Rocks
DR11 -2.74 dB -16.69 dB 7:27 11-The Eagle Has Landed
DR11 -2.21 dB -16.43 dB 4:19 12-Just Let Me Rock
––––––––––––––––––––––––––––––––––––––––

Number of tracks: 12
Official DR value: DR12

Samplerate: 44100 Hz
Channels: 2
Bits per sample: 16
Bitrate: 895 kbps
Codec: FLAC

[CUETools log; Date: 03.07.2017 18:23:26; Version: 2.1.4]
Pregap length 00:00:50.
[CTDB TOCID: i2gQH7sI7vCeA83FGCsvJWd.1UU-] found.
Track | CTDB Status
1 | (3/3) Accurately ripped
2 | (3/3) Accurately ripped
3 | (3/3) Accurately ripped
4 | (3/3) Accurately ripped
5 | (3/3) Accurately ripped
6 | (3/3) Accurately ripped
7 | (3/3) Accurately ripped
8 | (3/3) Accurately ripped
9 | (3/3) Accurately ripped
10 | (3/3) Accurately ripped
11 | (3/3) Accurately ripped
12 | (2/3) Accurately ripped, or (1/3) differs in 5 samples @00:44:18
[AccurateRip ID: 001cd215-010da276-970f180c] found.
Track [ CRC | V2 ] Status
01 [7e692781|42a268ce] (0+4/4) Accurately ripped
02 [b0a9695c|8ecc1699] (0+4/4) Accurately ripped
03 [b7d33db8|5e483804] (0+4/4) Accurately ripped
04 [abca718c|5ea59f83] (0+4/4) Accurately ripped
05 [8858c40e|9480d669] (0+4/4) Accurately ripped
06 [4d450c61|9201a295] (0+4/4) Accurately ripped
07 [19bbeb5b|24561523] (0+4/4) Accurately ripped
08 [d32a8971|dfee9e3c] (0+4/4) Accurately ripped
09 [5dd1be8d|a05dcdae] (0+4/4) Accurately ripped
10 [05983b26|966824f9] (0+4/4) Accurately ripped
11 [bb95cbdc|1a2f5f6f] (0+4/4) Accurately ripped
12 [f36442bc|b581263f] (0+4/4) Accurately ripped

Track Peak [ CRC32 ] [W/O NULL] [ LOG ]
– 100,0 [B8D27723] [970F8171] CRC32
01 84,8 [4FFDB52D] [0F02921A]
02 78,7 [FE5AD10E] [A9B5949A]
03 77,6 [AD4049AF] [4172A558]
04 78,4 [579DF3C3] [8CD67A4C]
05 85,8 [1A4D4EC7] [7D8036EA]
06 85,0 [B99BFE40] [04131951]
07 92,5 [34DD2ABF] [217305C9]
08 100,0 [4A69BCF3] [141823C5]
09 100,0 [B2E30F5B] [FCBF7972]
10 77,0 [2BC23EBC] [A0B275CE]
11 72,9 [8294B3C1] [716E4906]
12 77,5 [C5838E94] [28FBEF49]

Saxon - Rock 'n' Roll Gypsies (1989)

All thanks go to Ginger Devil

Saxon in my Blog

Download Saxon - Rock 'n' Roll Gypsies (1989):