Tags
Language
Tags

Gili Schwarzman, Guy Braunstein, Susanna Yoko Henkel, Amihai Grosz, Alisa Weilerstein - Old Souls (2019)

Posted By: ArlegZ
Gili Schwarzman, Guy Braunstein, Susanna Yoko Henkel, Amihai Grosz, Alisa Weilerstein - Old Souls (2019)

Gili Schwarzman, Guy Braunstein, Susanna Yoko Henkel, Amihai Grosz, Alisa Weilerstein - Old Souls: Beethoven, Wolf, Kreisler, Dvořák (2019)
EAC | FLAC | Image (Cue & Log) ~ 257 Mb | Total time: 52:19 | Scans included
Classical | Label: Pentatone | PTC5186815 | Recorded: 2016, 2017

Old Souls presents masterworks of Beethoven, Dvořák, Wolf and Kreisler in new arrangements for flute and strings, played by a group of outstanding young musicians. Guy Braunstein’s arrangements display these well-known pieces in a fresh new light, while simultaneously expanding the flute repertoire and showcasing the exceptional possibilities of the instrument, here played by Gili Schwarzman. Braunstein and Schwarzman are joined by violinist Susanna Yoko Henkel, violist Amihai Grosz and cellist Alisa Weilerstein. While the arrangement of Beethoven’s Violin Sonata Op. 23 entails a thorough recomposition of the original, the performances of Dvořák’s “American” String Quartet, Wolf’s “Italian” Serenade and Kreisler’s Syncopation stay closer to the source, with the flute taking up the role originally played by the first violin. The use of the flute creates novel sonic sensations through the way it blends with the strings, and at times gives the pieces a sparkle they did not have before.

Performer:
Gili Schwarzman, flute
Guy Braunstein, violin
Susanna Yoko Henkel, violin (1-3)
Amihai Grosz, viola
Alisa Weilerstein, cello

Track List:
Ludwig van Beethoven (1770-1827)
Violin Sonata No. 4 in A Minor, Op. 23 (arrangement for Flute Quintet: Guy Braunstein)
01. I. Presto
02. II. Andante scherzoso, più allegretto
03. III. Allegro molto
Hugo Wolf (1860-1903)
Serenade in G major ("Italian") (arrangement for Flute Quintet: Guy Braunstein)
04. Sehr lebhaft
Fritz Kreisler (1875-1962)
Syncopation (Arrangement for Flute Quartet: Guy Braunstein)
05. Allegretto grazioso
Antonin Dvořák (1841-1904)
"American" String Quartet No. 12 in F major, Op. 96 (Arrangement for Flute quartet: Guy Braunstein)
06. I. Allegro ma non troppo
07. II. Lento
08. III. Molto vivace
09. IV. Finale. Vivace ma non troppo


Exact Audio Copy V1.5 from 20. February 2020

EAC extraction logfile from 9. December 2020, 21:55

Gili Schwarzman, Guy Braunstein, Susanna Yoko Henkel, Amihai Grosz, Alisa Weilerstein / Old Souls - Chamber Music for Flute and Strings

Used drive : ASUS SDRW-08U7M-U Adapter: 1 ID: 0

Read mode : Secure
Utilize accurate stream : Yes
Defeat audio cache : Yes
Make use of C2 pointers : No

Read offset correction : 6
Overread into Lead-In and Lead-Out : No
Fill up missing offset samples with silence : Yes
Delete leading and trailing silent blocks : No
Null samples used in CRC calculations : Yes
Used interface : Native Win32 interface for Win NT & 2000

Used output format : User Defined Encoder
Selected bitrate : 128 kBit/s
Quality : High
Add ID3 tag : No
Command line compressor : C:\Program Files (x86)\Exact Audio Copy\Flac\flac.exe
Additional command line options : -V -8 -T "Date=%year%" -T "Genre=%genre%" %source%


TOC of the extracted CD

Track | Start | Length | Start sector | End sector
––––––––––––––––––––––––––––-
1 | 0:00.00 | 5:50.00 | 0 | 26249
2 | 5:50.00 | 6:46.00 | 26250 | 56699
3 | 12:36.00 | 6:00.00 | 56700 | 83699
4 | 18:36.00 | 7:36.00 | 83700 | 117899
5 | 26:12.00 | 2:16.00 | 117900 | 128099
6 | 28:28.00 | 7:06.00 | 128100 | 160049
7 | 35:34.00 | 7:21.00 | 160050 | 193124
8 | 42:55.00 | 3:57.00 | 193125 | 210899
9 | 46:52.00 | 5:25.03 | 210900 | 235277


Range status and errors

Selected range

Filename C:\temp\Old Souls - 2019\Old Souls.wav

Peak level 92.7 %
Extraction speed 4.4 X
Range quality 99.9 %
Test CRC DD7B40B9
Copy CRC DD7B40B9
Copy OK

No errors occurred


AccurateRip summary

Track 1 not present in database
Track 2 not present in database
Track 3 not present in database
Track 4 not present in database
Track 5 not present in database
Track 6 not present in database
Track 7 not present in database
Track 8 not present in database
Track 9 not present in database

None of the tracks are present in the AccurateRip database

End of status report

==== Log checksum 4AD67B028AAA2855AD86D307AFBB9B6A75320CA9A0BC3FFE3B38227AC6EE4895 ====

Gili Schwarzman, Guy Braunstein, Susanna Yoko Henkel, Amihai Grosz, Alisa Weilerstein - Old Souls (2019)

Thanks to the original releaser