Subcategories
Tags
Language
Tags

Scorpions with Berliner Philharmoniker - Moment Of Glory (2000) [CD + DVD]

Posted By: v3122
Scorpions with Berliner Philharmoniker - Moment Of Glory (2000) [CD + DVD]

Scorpions with Berliner Philharmoniker - Moment Of Glory (2000)
EAC | Flac(Image) + Cue + Log & MP3 CBR 320Kbps
EMI, 7243 5 57019 2 3 | USA | ~ 459 or 148 Mb | Scans(jpg) -> 112 Mb
DVD9: NTSC 4:3 (720x480) VBR, Letterboxed
Dolby AC3, 2 ch, 192 Kbps & 448 Kbps, 5.0 ch / DTS 755 Kbps, 5.0 ch
Symphonic Rock, Hard Rock

On the heels of Metallica's similarly conceived S&M comes the Scorpions' Moment of Glory, a presentation of past favorites (plus three new songs) with full orchestral backing courtesy of the Berlin Philharmonic. The rock instrumentation blends in best on the ballads, but some of the up-tempo rockers can also be pretty exciting, if a little bombastic. That said, the Scorpions' music isn't always complex enough to suggest interesting ways of augmenting the original arrangements – but since this is more a specialty item for diehards in the first place, that won't likely matter in the end. Some fans may be disappointed that Klaus Meine gives way to guest vocalists on a couple of tunes, but overall, this is a variation on the Scorpions' signature sound that loyalists will probably enjoy quite a bit.

by Steve Huey, allmusic
Scorpions with Berliner Philharmoniker - Moment Of Glory (2000):

Scorpions with Berliner Philharmoniker - Moment Of Glory (2000) [CD + DVD]

Tracklist:

01. Huricane 2000 - 6:04
02. Moment of Glory - 5:08
03. Send Me An Angel - 6:19
04. Wind of Change - 7:36
05. Crossfire (Instrumental) - 6:48
06. Deadly Sting Suite (Instrumental) - 7:23
07. Here In My Heart - 4:21
08. Still Loving You - 7:29
09. Big City Nights - 4:37
10. Lady Starlight - 5:33

Exact Audio Copy V1.0 beta 3 from 29. August 2011

Отчёт EAC об извлечении, выполненном 12. января 2012, 21:42

Scorpions & Berliner Philharmoniker / Moment of Glory (7243 5 57019 2 3)

Дисковод: Optiarc DVD RW AD-5170A Adapter: 0 ID: 0

Режим чтения : Достоверность
Использование точного потока : Да
Отключение кэша аудио : Да
Использование указателей C2 : Нет

Коррекция смещения при чтении : 48
Способность читать области Lead-in и Lead-out : Нет
Заполнение пропущенных сэмплов тишиной : Да
Удаление блоков с тишиной в начале и конце : Нет
При вычислениях CRC использовались нулевые сэмплы : Да
Интерфейс : Встроенный Win32-интерфейс для Win NT/2000

Выходной формат : Внутренние WAV-операции
Формат сэмплов : 44.100 Гц; 16 бит; стерео


TOC извлечённого CD

Трек | Старт | Длительность | Начальный сектор | Конечный сектор
––––––––––––––––––––––––––––––––––-
1 | 0:00.00 | 6:04.25 | 0 | 27324
2 | 6:04.25 | 5:08.25 | 27325 | 50449
3 | 11:12.50 | 6:19.22 | 50450 | 78896
4 | 17:31.72 | 7:36.05 | 78897 | 113101
5 | 25:08.02 | 6:47.70 | 113102 | 143696
6 | 31:55.72 | 7:22.45 | 143697 | 176891
7 | 39:18.42 | 4:20.43 | 176892 | 196434
8 | 43:39.10 | 7:28.62 | 196435 | 230096
9 | 51:07.72 | 4:37.05 | 230097 | 250876
10 | 55:45.02 | 5:32.73 | 250877 | 275849


Характеристики диапазона извлечения и сообщения об ошибках

Выбранный диапазон

Имя файла D:\Scorpions\2000 - Moment Of Glory\2000 - Moment of Glory (7243 5 57019 2 3).wav

Пиковый уровень 100.0 %
Скорость извлечения 5.4 X
Качество диапазона 100.0 %
CRC теста D5FADC07
CRC копии D5FADC07
Копирование… OK

Ошибок не произошло


AccurateRip: сводка

Трек 1 : извлечено точно (доверие 4) [917335DB] (AR v2)
Трек 2 : извлечено точно (доверие 4) [D29B6E00] (AR v2)
Трек 3 : извлечено точно (доверие 4) [312D66D6] (AR v2)
Трек 4 : извлечено точно (доверие 4) [61E6346E] (AR v2)
Трек 5 : извлечено точно (доверие 4) [533FBAD2] (AR v2)
Трек 6 : извлечено точно (доверие 4) [10E8586B] (AR v2)
Трек 7 : извлечено точно (доверие 4) [63A018EE] (AR v2)
Трек 8 : извлечено точно (доверие 4) [81A96ABE] (AR v2)
Трек 9 : извлечено точно (доверие 4) [9AB2D2E3] (AR v2)
Трек 10 : извлечено точно (доверие 4) [FD2F9235] (AR v2)

Все треки извлечены точно

Конец отчёта


[CUETools log; Date: 09.01.2018 11:50:21; Version: 2.1.5]
[AccurateRip ID: 00178dc6-00bccc06-7d0e5e0a] found.
Track [ CRC | V2 ] Status
01 [6fdba8ef|917335db] (19+21/40) Accurately ripped
02 [5c705cb7|d29b6e00] (20+21/41) Accurately ripped
03 [1e6f3608|312d66d6] (19+21/40) Accurately ripped
04 [5eadddaf|61e6346e] (20+21/41) Accurately ripped
05 [a8e4dff1|533fbad2] (20+19/39) Accurately ripped
06 [32b82fa2|10e8586b] (20+20/40) Accurately ripped
07 [2b9b1e4c|63a018ee] (21+20/41) Accurately ripped
08 [aeba07e0|81a96abe] (21+20/41) Accurately ripped
09 [a6d5dc4d|9ab2d2e3] (20+18/38) Accurately ripped
10 [128bc496|fd2f9235] (20+20/40) Accurately ripped

Track Peak [ CRC32 ] [W/O NULL] [ LOG ]
– 100,0 [D5FADC07] [78EE83A7] CRC32
01 100,0 [19BBA56F] [02D806EC]
02 97,1 [A8FE7FFA] [463DEE39]
03 97,1 [1AA06CE2] [19B526A6]
04 97,1 [DCEDEC7C] [99E4B9B8]
05 97,1 [4DE3559C] [3B00238A]
06 97,1 [31C2C7ED] [1FD191FB]
07 86,5 [1717D274] [0D9A4B7B]
08 97,1 [341740EE] [304D3D87]
09 97,1 [6FD9998E] [E14175C1]
10 97,1 [551294AF] [E5A71E9D]


Scorpions with Berliner Philharmoniker - Moment Of Glory (2000) [CD + DVD]

Tracklist DVD:

1. Hurricane 2000
2. Moment of Glory
3. You and I
4. We don't own the World
5. Here in my Heart
6. We'll burn the Sky
7. Big City Nights
8. Deadly Sting Suite
( I. Crossfire, II. He's a Woman, she's a Man, III. Dynamite )
9. Wind of Change
10. Still loving you
11. Moment of Glory (encore)

Musicians:

Klaus Meine - Vocals
Rudolf Schenker - Guitars
Matthias Jabs - Guitars
James Kottak - Drums
Pawel Maciwoda - Bass


Title: Scorpions 2009 - Moment of Glory
Size: 7.43 Gb ( 7 792 220,00 KBytes ) - DVD-9
Enabled regions: 1, 2, 3, 4, 5, 6, 7, 8

VTS_01 :
Play Length: 00:00:16+00:00:08
Video: NTSC 4:3 (720x480) VBR

VTS_02 :
Play Length: 00:11:39+00:00:00+00:04:25+00:00:00
Video: NTSC 4:3 (720x480) VBR, Letterboxed
Audio:
Not specified (Dolby AC3, 2 ch)

VTS_03 :
Play Length: 01:29:56+00:00:00
Video: NTSC 16:9 (720x480) VBR, Auto Letterboxed
Audio:
Not specified (Dolby AC3, 2 ch)
Not specified (Dolby AC3, 5 ch)
Not specified (DTS, 2 ch)

VTS_04 :
Play Length: 00:04:46+00:00:00+00:04:46+00:00:00
Video: NTSC 4:3 (720x480) VBR, Letterboxed
Audio:
Not specified (Dolby AC3, 2 ch)


Scorpions with Berliner Philharmoniker - Moment Of Glory (2000) [CD + DVD]

Scorpions with Berliner Philharmoniker - Moment Of Glory (2000) [CD + DVD]

Scorpions with Berliner Philharmoniker - Moment Of Glory (2000) [CD + DVD]

Scorpions with Berliner Philharmoniker - Moment Of Glory (2000) [CD + DVD]

All thanks go to mewzik

Scorpions in my Blog

Download Scorpions with Berliner Philharmoniker - Moment Of Glory (2000):