Tags
Language
Tags

Scorpions - Crazy World (1990)

Posted By: popsakov
Scorpions - Crazy World (1990)

Scorpions - Crazy World (1990)
EAC Rip | FLAC (Img) + Cue + Log ~ 372 Mb | MP3 CBR320 ~ 128 Mb
Full Scans ~ 53 Mb | RAR 5% Recovery
Hard Rock | Mercury #P2-46908

Crazy World is the eleventh studio album by the German hard rock band Scorpions released on November 6, 1990. The album peaked at No. 21 on the Billboard 200 chart for albums in 1991. That same year, the song "Wind of Change" reached No. 4 on the Billboard Hot 100 and "Send Me an Angel" reached No. 44 on the same chart. Crazy World was the last album to feature bassist Francis Buchholz, and by that extent, the last to feature the band's classic lineup. This album was the Scorpions' first album in a decade and a half to not be produced by Dieter Dierks and is widely considered to be the last "classic" Scorpions album.

***************

Scorpions - Crazy World (1990)

Scorpions - Crazy World (1990)

Track List:

01. Tease Me Please Me [04:47]
02. Don't Believe Her [04:56]
03. To Be With You In Heaven [04:52]
04. Wind Of Change [05:14]
05. Restless Nights [05:49]
06. Lust Or Love [04:23]
07. Kicks After Six [03:50]
08. Hit Between The Eyes [04:35]
09. Money And Fame [05:08]
10. Crazy World [05:09]
11. Send Me An Angel [04:34]

Exact Audio Copy V1.0 beta 6 from 9. April 2015

EAC extraction logfile from 4. November 2015, 21:53

Scorpions / Crazy World

Used drive : HL-DT-STDVDRAM GH22NS40 Adapter: 1 ID: 0

Read mode : Secure
Utilize accurate stream : Yes
Defeat audio cache : Yes
Make use of C2 pointers : No

Read offset correction : 667
Overread into Lead-In and Lead-Out : No
Fill up missing offset samples with silence : Yes
Delete leading and trailing silent blocks : No
Null samples used in CRC calculations : Yes
Used interface : Native Win32 interface for Win NT & 2000

Used output format : User Defined Encoder
Selected bitrate : 1024 kBit/s
Quality : High
Add ID3 tag : Yes
Command line compressor : C:\Program Files\Exact Audio Copy\Flac\flac.exe
Additional command line options : -V -8 -T "Date=%year%" -T "Genre=%genre%" %source%


TOC of the extracted CD

Track | Start | Length | Start sector | End sector
––––––––––––––––––––––––––––-
1 | 0:00.00 | 4:46.12 | 0 | 21461
2 | 4:46.12 | 4:55.55 | 21462 | 43641
3 | 9:41.67 | 4:51.43 | 43642 | 65509
4 | 14:33.35 | 5:13.17 | 65510 | 89001
5 | 19:46.52 | 5:48.30 | 89002 | 115131
6 | 25:35.07 | 4:22.40 | 115132 | 134821
7 | 29:57.47 | 3:49.70 | 134822 | 152066
8 | 33:47.42 | 4:34.08 | 152067 | 172624
9 | 38:21.50 | 5:07.37 | 172625 | 195686
10 | 43:29.12 | 5:08.50 | 195687 | 218836
11 | 48:37.62 | 4:33.15 | 218837 | 239326


Range status and errors

Selected range

Filename I:\Rips\Scorpions - Crazy World.wav

Peak level 98.5 %
Extraction speed 1.9 X
Range quality 100.0 %
Test CRC E072DB6B
Copy CRC E072DB6B
Copy OK

No errors occurred


AccurateRip summary

Track 1 accurately ripped (confidence 6) [BE80BEAF] (AR v2)
Track 2 accurately ripped (confidence 6) [A61AEBAE] (AR v2)
Track 3 accurately ripped (confidence 6) [523A531D] (AR v2)
Track 4 accurately ripped (confidence 6) [FEE620A6] (AR v2)
Track 5 accurately ripped (confidence 6) [52ABFB0E] (AR v2)
Track 6 accurately ripped (confidence 6) [422A4E2D] (AR v2)
Track 7 accurately ripped (confidence 6) [8D84F520] (AR v2)
Track 8 accurately ripped (confidence 6) [C13F93C8] (AR v2)
Track 9 accurately ripped (confidence 6) [37D35033] (AR v2)
Track 10 accurately ripped (confidence 6) [3D95A657] (AR v2)
Track 11 accurately ripped (confidence 6) [E58B4614] (AR v2)

All tracks accurately ripped

End of status report

–– CUETools DB Plugin V2.1.6

[CTDB TOCID: N1gQ7pzCVz3ClPmpBvOC5ijwn1A-] found
Submit result: already submitted
Track | CTDB Status
1 | (20/20) Accurately ripped
2 | (20/20) Accurately ripped
3 | (20/20) Accurately ripped
4 | (20/20) Accurately ripped
5 | (20/20) Accurately ripped
6 | (20/20) Accurately ripped
7 | (20/20) Accurately ripped
8 | (20/20) Accurately ripped
9 | (20/20) Accurately ripped
10 | (20/20) Accurately ripped
11 | (19/20) Accurately ripped


==== Log checksum 7DA97BAAE93970CBC7D281C45A2356457B70CECE71AAE9F18512408BB2CF6065 ====

[CUETools log; Date: 12.07.2019 16:53:36; Version: 2.1.6]
[CTDB TOCID: N1gQ7pzCVz3ClPmpBvOC5ijwn1A-] found.
Track | CTDB Status
1 | (67/68) Accurately ripped
2 | (68/68) Accurately ripped
3 | (68/68) Accurately ripped
4 | (68/68) Accurately ripped
5 | (66/68) Accurately ripped
6 | (68/68) Accurately ripped
7 | (68/68) Accurately ripped
8 | (68/68) Accurately ripped
9 | (67/68) Accurately ripped
10 | (68/68) Accurately ripped
11 | (67/68) Accurately ripped
[AccurateRip ID: 001618b1-00bf1089-a80c770b] found.
Track [ CRC | V2 ] Status
01 [0b7f7dc7|be80beaf] (00+09/67) Accurately ripped
02 [47baac54|a61aebae] (00+09/66) Accurately ripped
03 [b65ef475|523a531d] (00+09/68) Accurately ripped
04 [ad0a1d24|fee620a6] (00+09/69) Accurately ripped
05 [f9242a14|52abfb0e] (00+09/67) Accurately ripped
06 [da50a0ca|422a4e2d] (00+09/68) Accurately ripped
07 [df66fc65|8d84f520] (00+09/68) Accurately ripped
08 [4d72f8a6|c13f93c8] (00+09/67) Accurately ripped
09 [ffab0bec|37d35033] (00+09/67) Accurately ripped
10 [054cdf31|3d95a657] (00+09/67) Accurately ripped
11 [ef9091e1|e58b4614] (00+09/65) Accurately ripped
Offsetted by 272:
01 [b9fe3737] (06/67) Accurately ripped
02 [d938abd4] (06/66) Accurately ripped
03 [b350da65] (07/68) Accurately ripped
04 [3a97f464] (07/69) Accurately ripped
05 [a819d374] (07/67) Accurately ripped
06 [5b4460ef] (07/68) Accurately ripped
07 [7a352620] (07/68) Accurately ripped
08 [01511ee6] (07/67) Accurately ripped
09 [b1c2e25e] (07/67) Accurately ripped
10 [bc63bd9f] (07/67) Accurately ripped
11 [fc37a731] (07/65) Accurately ripped
Offsetted by 762:
01 [99fcdbdd] (03/67) Accurately ripped
02 [a3160184] (03/66) Accurately ripped
03 [d73954db] (03/68) Accurately ripped
04 [79995bec] (03/69) Accurately ripped
05 [8e9460d0] (03/67) Accurately ripped
06 [a0ba10aa] (03/68) Accurately ripped
07 [62b75f29] (03/68) Accurately ripped
08 [c19423ce] (03/67) Accurately ripped
09 [2e72589b] (03/67) Accurately ripped
10 [cc1a1c4a] (03/67) Accurately ripped
11 [c9995ac3] (03/65) Accurately ripped
Offsetted by 809:
01 [3fab3a06] (02/67) Accurately ripped
02 [16943f8c] (02/66) Accurately ripped
03 [d894123c] (02/68) Accurately ripped
04 [f20f0b78] (02/69) Accurately ripped
05 [4bded3ba] (02/67) Accurately ripped
06 [fcd86711] (02/68) Accurately ripped
07 [ba7c0660] (02/68) Accurately ripped
08 [e64e4a6a] (02/67) Accurately ripped
09 [e73119dd] (02/67) Accurately ripped
10 [eea3ce38] (02/67) Accurately ripped
11 [99e72aae] (02/65) Accurately ripped
Offsetted by 839:
01 [da71ac98] (06/67) Accurately ripped
02 [80fa9d9c] (06/66) Accurately ripped
03 [fa1fb13e] (07/68) Accurately ripped
04 [c1abdd90] (07/69) Accurately ripped
05 [8e39ec0e] (06/67) Accurately ripped
06 [90120fbe] (06/68) Accurately ripped
07 [1cfdb0a7] (06/68) Accurately ripped
08 [5fca8ea2] (06/67) Accurately ripped
09 [4aaa0417] (06/67) Accurately ripped
10 [9e947276] (07/67) Accurately ripped
11 [196a8944] (06/65) Accurately ripped
Offsetted by 1171:
01 [be7d4b2c] (04/67) Accurately ripped
02 [e745593c] (04/66) Accurately ripped
03 [3a28d532] (04/68) Accurately ripped
04 [ee735900] (04/69) Accurately ripped
05 [c1e5c616] (04/67) Accurately ripped
06 [e06d2b0b] (04/68) Accurately ripped
07 [b6c83202] (04/68) Accurately ripped
08 [06a13d52] (04/67) Accurately ripped
09 [39afc1d2] (04/67) Accurately ripped
10 [6eb18eab] (04/67) Accurately ripped
11 [25185bc0] (04/65) Accurately ripped
Offsetted by 1432:
01 [1aa22fef] (06/67) Accurately ripped
02 [eb598b94] (06/66) Accurately ripped
03 [c467895d] (06/68) Accurately ripped
04 [9647b004] (06/69) Accurately ripped
05 [03318024] (06/67) Accurately ripped
06 [6f0befcb] (06/68) Accurately ripped
07 [4a2e3a1c] (06/68) Accurately ripped
08 [5ac0c206] (06/67) Accurately ripped
09 [c8956e9b] (06/67) Accurately ripped
10 [f886740a] (05/67) Accurately ripped
11 [940f45d9] (05/65) Accurately ripped
Offsetted by 271:
01 [9b3bde10] (00/67) No match (V2 was not tested)
02 [6f46535c] (00/66) No match (V2 was not tested)
03 [4bcc32f6] (00/68) No match (V2 was not tested)
04 [9a12ba30] (00/69) No match (V2 was not tested)
05 [fb38ec3e] (00/67) No match (V2 was not tested)
06 [1f1f7f9c] (00/68) No match (V2 was not tested)
07 [f1c1e1e1] (00/68) No match (V2 was not tested)
08 [ca113ec2] (00/67) No match (V2 was not tested)
09 [e0ca479b] (00/67) No match (V2 was not tested)
10 [2e406272] (00/67) No match (V2 was not tested)
11 [33b3462c] (00/65) No match (V2 was not tested)

Track Peak [ CRC32 ] [W/O NULL] [ LOG ]
– 98,5 [E072DB6B] [52383437] CRC32
01 96,1 [721DBF23] [47EDE8D8]
02 94,3 [473A534A] [FA89CBCE]
03 94,9 [C7B074C2] [7DDFB580]
04 98,5 [38219F1C] [566DE518]
05 96,2 [5F778952] [218CDC39]
06 92,9 [E38F08DB] [58C51CAE]
07 94,1 [DE0B0731] [EC8F5E57]
08 95,3 [40F2736C] [3367F0C1]
09 96,7 [CCE11530] [C0C76F21]
10 93,0 [77DED917] [974DE1EE]
11 88,0 [D782890E] [0285E2F6]

Scorpions - Crazy World (1990)

All thanks go to powermet

>>> "Scorpions" in my Blog <<<

Download from icerbox.com: