Tags
Language
Tags

Scorpions - Crazy World (1990) [Japanese Ed.]

Posted By: v3122
Scorpions - Crazy World (1990) [Japanese Ed.]

Scorpions - Crazy World (1990)
EAC | Flac(Image) + Cue + Log & MP3 CBR 320Kbps
Mercury, PHCR-1041 | ~ 364 or 126 Mb | Artwork -> 72 Mb
Hard Rock

After the release of Savage Amusement in 1988, the Scorpions expressed disdain toward the album, feeling that it was too polished when compared to their other work. Their longtime producer, Dieter Dierks, was replaced with well-known rock producer Keith Olsen, who would produce Crazy World and assist in making it one of the Scorpions' greatest recordings. Their music had certainly changed since Savage Amusement, sounding a little bit heavier and less glamorous. But even with the metal sound, the songs remain melodic and catchy. The power ballads on the album, "Wind of Change" and "Send Me an Angel," are arguably two of the band's greatest slow numbers, boasting soothing harmony and lyrics. Crazy World remains the Scorpions' finest '90s album and is sure to please its listeners.

by Barry Weber, allmusic
Scorpions - Crazy World (1990):

Tracklist:

01. Tease Me Please Me (4:47)
02. Don't Believe Her (4:56)
03. To Be With You In Heaven (4:52)
04. Wind Of Change (5:13)
05. Restless Nights (5:48)
06. Lust Or Love (4:23)
07. Kicks After Six (3:50)
08. Hit Between The Eyes (4:34)
09. Money And Fame (5:08)
10. Crazy World (5:08)
11. Send Me An Angel (4:34)

Exact Audio Copy V1.0 beta 3 from 29. August 2011

Отчёт EAC об извлечении, выполненном 11. октября 2014, 16:01

Scorpions / Crazy World

Дисковод: PIONEER DVD-RW DVR-220L Adapter: 0 ID: 0

Режим чтения : Достоверность
Использование точного потока : Да
Отключение кэша аудио : Да
Использование указателей C2 : Нет

Коррекция смещения при чтении : 6
Способность читать области Lead-in и Lead-out : Нет
Заполнение пропущенных сэмплов тишиной : Да
Удаление блоков с тишиной в начале и конце : Нет
При вычислениях CRC использовались нулевые сэмплы : Да
Интерфейс : Встроенный Win32-интерфейс для Win NT/2000

Выходной формат : Внутренние WAV-операции
Формат сэмплов : 44.100 Гц; 16 бит; стерео


TOC извлечённого CD

Трек | Старт | Длительность | Начальный сектор | Конечный сектор
––––––––––––––––––––––––––––––––––-
1 | 0:00.37 | 4:46.52 | 37 | 21538
2 | 4:47.14 | 4:55.45 | 21539 | 43708
3 | 9:42.59 | 4:51.48 | 43709 | 65581
4 | 14:34.32 | 5:13.20 | 65582 | 89076
5 | 19:47.52 | 5:48.32 | 89077 | 115208
6 | 25:36.09 | 4:22.65 | 115209 | 134923
7 | 29:58.74 | 3:49.48 | 134924 | 152146
8 | 33:48.47 | 4:34.05 | 152147 | 172701
9 | 38:22.52 | 5:07.62 | 172702 | 195788
10 | 43:30.39 | 5:08.18 | 195789 | 218906
11 | 48:38.57 | 4:33.57 | 218907 | 239438


Характеристики диапазона извлечения и сообщения об ошибках

Выбранный диапазон

Имя файла D:\! Tracker\Music\Scorpions\Scorpions Collection by mewzik\1990 - Crazy World\1990 - Crazy World.wav

Пиковый уровень 98.5 %
Скорость извлечения 7.1 X
Качество диапазона 99.9 %
CRC теста 6126120C
CRC копии 6126120C
Копирование… OK

Ошибок не произошло


AccurateRip: сводка

Трек 1 : извлечено точно (доверие 12) [74DD748F] (AR v2)
Трек 2 : извлечено точно (доверие 12) [70886BF0] (AR v2)
Трек 3 : извлечено точно (доверие 12) [3751BB28] (AR v2)
Трек 4 : извлечено точно (доверие 12) [3F96D3B1] (AR v2)
Трек 5 : извлечено точно (доверие 12) [C49F5189] (AR v2)
Трек 6 : извлечено точно (доверие 12) [A45280AE] (AR v2)
Трек 7 : извлечено точно (доверие 12) [036B94D8] (AR v2)
Трек 8 : извлечено точно (доверие 12) [21CE6AD7] (AR v2)
Трек 9 : извлечено точно (доверие 12) [FC45616A] (AR v2)
Трек 10 : извлечено точно (доверие 12) [4DCDD8E9] (AR v2)
Трек 11 : извлечено точно (доверие 12) [3B92CE64] (AR v2)

Все треки извлечены точно

Конец отчёта


[CUETools log; Date: 27.06.2022 13:00:13; Version: 2.1.4]
Pregap length 00:00:37.
[AccurateRip ID: 00161c65-00bf2ab2-8e0c780b] found.
Track [ CRC | V2 ] Status
01 [89467167|74dd748f] (06+30/36) Accurately ripped
02 [380ddcd0|70886bf0] (06+30/36) Accurately ripped
03 [0e89f459|3751bb28] (06+30/36) Accurately ripped
04 [d42c48f4|3f96d3b1] (06+31/37) Accurately ripped
05 [fbf68184|c49f5189] (06+30/36) Accurately ripped
06 [57e3cffa|a45280ae] (06+30/36) Accurately ripped
07 [f4f66dcd|036b94d8] (06+30/36) Accurately ripped
08 [97a895b6|21ce6ad7] (06+30/36) Accurately ripped
09 [2e9e308a|fc45616a] (06+30/36) Accurately ripped
10 [9dd4ca8b|4dcdd8e9] (06+30/36) Accurately ripped
11 [c9aef9bd|3b92ce64] (06+31/37) Accurately ripped

Track Peak [ CRC32 ] [W/O NULL] [ LOG ]
– 98,5 [6126120C] [52383437] CRC32
01 96,1 [AD2F013C] [47EDE8D8]
02 94,3 [3876BC3B] [DA6E6234]
03 94,9 [AB10BC08] [295BAED6]
04 98,5 [4C6DFCA8] [566DE518]
05 96,2 [01495172] [218CDC39]
06 92,9 [FF3057EC] [E39314B3]
07 94,1 [E6B8B60E] [1E21B09B]
08 95,3 [8B7C8CD8] [3367F0C1]
09 96,7 [632E12E7] [D6BD4B32]
10 93,0 [16B84788] [078B9EFE]
11 88,0 [2CA977C5] [0285E2F6]


All thanks go to the original releaser

Scorpions in my Blog

Download Scorpions - Crazy World (1990):