Subcategories
Tags
Language
Tags

Scorpions - Tokyo Tapes (1978) [RCA/BMG Victor, B20D-41014, Japan]

Posted By: v3122
Scorpions - Tokyo Tapes (1978) [RCA/BMG Victor, B20D-41014, Japan]

Scorpions - Tokyo Tapes (1978)
EAC | Flac(Image) + Cue + Log & MP3 CBR 320Kbps
1989 | RCA/BMG Victor, B20D-41014 | ~ 478 or 168 Mb | Scans(jpg) -> 42 Mb
Hard Rock

If you played in a hard rock band during the '70s, what were you likely to be doing circa 1978? Why, recording a live album, of course. Preferably a double vinyl set, and in Japan to boot. The Scorpions were no exception, and in fact, their Tokyo Tapes were captured only days after Cheap Trick's At Budokan in April 1978. Though hardly as inspired or successful, the Tokyo Tapes set still serves as an ideal greatest-hits collection of the Scorpions' first decade. This recording also showcases the spectacular playing (and occasionally, the dreadful singing) of guitarist Uli Jon Roth, who would soon leave the band for a misguided solo career, but displays some jaw-dropping technique here, most notably on the epic "We'll Burn the Sky." The rest of the band also puts in competent performances on such early standards as "In Trance," "Fly to the Rainbow," and "Speedy's Coming." The material on disc one is consistently strong, and though a number of pointless covers ("Houng Dog," "Long Tall Sally") and that most dreaded concert spectacle – the drum solo – break the flow on disc two, the band still closes strong with the crowd-pleasing Japanese folk song "Kojo No Tsuki" and frenetic versions of "Dark Lady" and "Robot Man." Ultimately, if you have any curiosity about the Scorpions' early material, Tokyo Tapes provides the perfect introduction.

by Eduardo Rivadavia, allmusic
Scorpions - Tokyo Tapes (1978):

Scorpions - Tokyo Tapes (1978) [RCA/BMG Victor, B20D-41014, Japan]

Tracklist:

01. All Night Long (3:36)
02. Pictured Life (3:23)
03. Backstage Queen (3:40)
04. Polar Nights (6:56)
05. In Trance (5:28)
06. We'll Burn The Sky (8:13)
07. Suspender Love (3:40)
08. In Search Of The Peace Of Mind (3:02)
09. Fly To The Rainbow (9:45)
10. He's A Woman, She's A Man (5:28)
11. Speedy's Coming (3:38)
12. Top Of The Bill (6:44)
13. Steamrock Fever (3:38)
14. Dark Lady (3:51)

Exact Audio Copy V1.0 beta 3 from 29. August 2011

Отчёт EAC об извлечении, выполненном 28. апреля 2013, 19:23

Scorpions / Tokyo Tapes (B20D-41014)

Дисковод: PIONEER DVD-RW DVR-220L Adapter: 1 ID: 1

Режим чтения : Достоверность
Использование точного потока : Да
Отключение кэша аудио : Да
Использование указателей C2 : Нет

Коррекция смещения при чтении : 6
Способность читать области Lead-in и Lead-out : Нет
Заполнение пропущенных сэмплов тишиной : Да
Удаление блоков с тишиной в начале и конце : Нет
При вычислениях CRC использовались нулевые сэмплы : Да
Интерфейс : Встроенный Win32-интерфейс для Win NT/2000

Выходной формат : Внутренние WAV-операции
Формат сэмплов : 44.100 Гц; 16 бит; стерео


TOC извлечённого CD

Трек | Старт | Длительность | Начальный сектор | Конечный сектор
––––––––––––––––––––––––––––––––––-
1 | 0:00.37 | 3:36.13 | 37 | 16249
2 | 3:36.50 | 3:23.37 | 16250 | 31511
3 | 7:00.12 | 3:39.38 | 31512 | 47974
4 | 10:39.50 | 6:55.42 | 47975 | 79141
5 | 17:35.17 | 5:27.50 | 79142 | 103716
6 | 23:02.67 | 8:12.38 | 103717 | 140654
7 | 31:15.30 | 3:39.65 | 140655 | 157144
8 | 34:55.20 | 3:02.17 | 157145 | 170811
9 | 37:57.37 | 9:45.25 | 170812 | 214711
10 | 47:42.62 | 5:27.40 | 214712 | 239276
11 | 53:10.27 | 3:37.38 | 239277 | 255589
12 | 56:47.65 | 6:44.22 | 255590 | 285911
13 | 63:32.12 | 3:37.53 | 285912 | 302239
14 | 67:09.65 | 3:50.47 | 302240 | 319536


Характеристики диапазона извлечения и сообщения об ошибках

Выбранный диапазон

Имя файла C:\1978 - Tokyo Tapes (B20D-41014).wav

Пиковый уровень 98.7 %
Скорость извлечения 8.4 X
Качество диапазона 100.0 %
CRC теста 1A4ED8EE
CRC копии 1A4ED8EE
Копирование… OK

Ошибок не произошло


AccurateRip: сводка

Трек 1 : извлечено точно (доверие 1) [6E348A6A] (AR v1)
Трек 2 : извлечено точно (доверие 1) [43AD3798] (AR v1)
Трек 3 : извлечено точно (доверие 1) [E7A3D7F9] (AR v1)
Трек 4 : извлечено точно (доверие 1) [8AD484EC] (AR v1)
Трек 5 : извлечено точно (доверие 1) [12529EDD] (AR v1)
Трек 6 : извлечено точно (доверие 1) [837F8C49] (AR v1)
Трек 7 : извлечено точно (доверие 1) [15392FC1] (AR v1)
Трек 8 : извлечено точно (доверие 1) [AEDB812F] (AR v1)
Трек 9 : извлечено точно (доверие 1) [55A5500E] (AR v1)
Трек 10 : извлечено точно (доверие 1) [B15083FE] (AR v1)
Трек 11 : извлечено точно (доверие 1) [4EBE5C61] (AR v1)
Трек 12 : извлечено точно (доверие 1) [95A1521A] (AR v1)
Трек 13 : извлечено точно (доверие 1) [3C881424] (AR v1)
Трек 14 : извлечено точно (доверие 1) [BDFE7367] (AR v1)

Все треки извлечены точно

Конец отчёта

foobar2000 1.2.9 / Dynamic Range Meter 1.1.1
log date: 2017-05-11 13:29:40

––––––––––––––––––––––––––––––––––––––––
Analyzed: Scorpions / Tokyo Tapes (B20D-41014)
––––––––––––––––––––––––––––––––––––––––

DR Peak RMS Duration Track
––––––––––––––––––––––––––––––––––––––––
DR10 -0.40 dB -11.92 dB 3:36 01-All Night Long
DR10 -0.46 dB -11.24 dB 3:23 02-Pictured Life
DR10 -0.50 dB -11.34 dB 3:40 03-Backstage Queen
DR10 -0.11 dB -12.51 dB 6:56 04-Polar Nights
DR11 -0.76 dB -13.47 dB 5:28 05-In Trance
DR10 -0.63 dB -13.06 dB 8:13 06-We'll Burn The Sky
DR9 -1.23 dB -12.30 dB 3:40 07-Suspender Love
DR12 -1.63 dB -16.06 dB 3:02 08-In Search Of The Peace Of Mind
DR10 -1.29 dB -13.92 dB 9:45 09-Fly To The Rainbow
DR10 -1.56 dB -12.46 dB 5:28 10-He's A Woman, She's A Man
DR9 -0.94 dB -11.90 dB 3:38 11-Speedy's Coming
DR10 -1.22 dB -13.00 dB 6:44 12-Top Of The Bill
DR10 -0.46 dB -11.41 dB 3:38 13-Steamrock Fever
DR10 -1.04 dB -12.33 dB 3:51 14-Dark Lady
––––––––––––––––––––––––––––––––––––––––

Number of tracks: 14
Official DR value: DR10

Samplerate: 44100 Hz
Channels: 2
Bits per sample: 16
Bitrate: 913 kbps
Codec: FLAC

[CUETools log; Date: 11.05.2017 13:25:17; Version: 2.1.4]
Pregap length 00:00:37.
[CTDB TOCID: Q5BNDxDDFs1fwu8CPcn3jambqEA-] found.
Track | CTDB Status
1 | (6/6) Accurately ripped
2 | (6/6) Accurately ripped
3 | (6/6) Accurately ripped
4 | (6/6) Accurately ripped
5 | (6/6) Accurately ripped
6 | (6/6) Accurately ripped
7 | (6/6) Accurately ripped
8 | (6/6) Accurately ripped
9 | (6/6) Accurately ripped
10 | (6/6) Accurately ripped
11 | (6/6) Accurately ripped
12 | (6/6) Accurately ripped
13 | (6/6) Accurately ripped
14 | (6/6) Accurately ripped
[AccurateRip ID: 00241461-01883484-c510a40e] found.
Track [ CRC | V2 ] Status
01 [6e348a6a|03b2b8d2] (0+4/4) Accurately ripped
02 [43ad3798|6ba839c4] (0+4/4) Accurately ripped
03 [e7a3d7f9|45ca9c42] (0+4/4) Accurately ripped
04 [8ad484ec|2dfc2642] (0+4/4) Accurately ripped
05 [12529edd|a9d4ccce] (0+4/4) Accurately ripped
06 [837f8c49|5b9dc949] (0+4/4) Accurately ripped
07 [15392fc1|82bd6a68] (0+4/4) Accurately ripped
08 [aedb812f|85cc4a21] (0+4/4) Accurately ripped
09 [55a5500e|22aeb43a] (0+4/4) Accurately ripped
10 [b15083fe|ac6efc72] (0+4/4) Accurately ripped
11 [4ebe5c61|8a0f98e1] (0+4/4) Accurately ripped
12 [95a1521a|eb029cd4] (0+4/4) Accurately ripped
13 [3c881424|f742c4f6] (0+4/4) Accurately ripped
14 [bdfe7367|39d788d8] (0+4/4) Accurately ripped

Track Peak [ CRC32 ] [W/O NULL] [ LOG ]
– 98,7 [1A4ED8EE] [20B851DF] CRC32
01 95,5 [B57DDFDF] [96F8D225]
02 94,8 [D52FAFF0] [2F62BAAF]
03 94,3 [BBEE86E5] [9466AE41]
04 98,7 [B025AC1B] [5E924A17]
05 91,6 [DD0C66DC] [B29078C2]
06 93,0 [D7BAED3D] [0A03198F]
07 86,7 [348ED42D] [C5274115]
08 82,9 [F2EC1924] [8E471949]
09 86,2 [4303532A] [DE18773E]
10 83,5 [C14C09F4] [58278938]
11 89,7 [272FD1E3] [3339718A]
12 86,8 [F961527E] [CCFFACBC]
13 94,7 [C74A4177] [72C18743]
14 88,7 [85B03420] [0105708B]

Scorpions - Tokyo Tapes (1978) [RCA/BMG Victor, B20D-41014, Japan]

All thanks go to mewzik

Scorpions in my Blog

Download Scorpions - Tokyo Tapes (1978):