Subcategories

Scott Stewart & The Other Side - Scott Stewart & The Other Side (1987)

Posted By: BlondStyle
Scott Stewart & The Other Side - Scott Stewart & The Other Side (1987)

Scott Stewart & The Other Side - Scott Stewart & The Other Side (1987)
Pop/Rock, Lite AOR, Westcoast | EAC Rip | FLAC, Img+CUE+LOG+Scans (JPEG) | 37:58 Min. | 265,29 Mb
Label: Epic / CBS Records (Canada) | Cat.# EK 90770 | Released: 1987
Scott Stewart & The Other Side - Scott Stewart & The Other Side (1987)

Another Westcoast melodic AOR gem, this one's from 1987 and getting tougher to find by the day. A must for fans of Michael Breen, J.C. Mark and others.

Scott Stewart & The Other Side - Scott Stewart & The Other Side (1987)

Scott Stewart & The Other Side - Scott Stewart & The Other Side (1987)


Release of this album/CD: 1987 [CD Epic/CBS Records (Canada), Cat.# EK 90770 / UPC: 07464907702]
℗© 1987 CBS Inc. (Artwork)
℗© 1987 The Other Side, Ltd. (CD)
track 6 © 1987 Socorro Songs
Manufactured and Distributed by CBS Records Canada Ltd.
Printed in Canada


Credits:

Bass - Dave LaRue
Drums - Rick Lotter
Guitars - Phil Sillas, Tom Phillips, Scott McKinstry, Glenn Alexander
Lead Vocals - Scott Stewart
Keyboards - Phil Sillas, Charlie Peacock, Charles Molinari, Lee Shapiro
Saxophone - Cornelius Bumpus
Produced by - Phil Sillas


Tracklist:

01. Don't Stop (04:07)
02. Darlin' It's You (04:36)
03. Restless For You Touch (04:53)
04. Give Me Your Lovin' (03:25)
05. Hold Me (03:13)
06. Are You Gonna Leave Me (03:46)
07. Love & Devotion (03:58)
08. All You Need (03:21)
09. Never Loose This Way Again (04:08)
10. Madia Man (03:30)

Exact Audio Copy V1.1 from 23. June 2015

Отчёт EAC об извлечении, выполненном 18. апреля 2018, 20:13

Scott Stewart & The Other Side / Scott Stewart & The Other Side (EK-90770)

Дисковод: PLEXTOR BD-R PX-B950SA Adapter: 1 ID: 0

Режим чтения : Достоверность
Использование точного потока : Да
Отключение кэша аудио : Да
Использование указателей C2 : Нет

Коррекция смещения при чтении : 6
Способность читать области Lead-in и Lead-out : Нет
Заполнение пропущенных сэмплов тишиной : Да
Удаление блоков с тишиной в начале и конце : Нет
При вычислениях CRC использовались нулевые сэмплы : Да
Интерфейс : Встроенный Win32-интерфейс для Win NT/2000

Выходной формат : Пользовательский кодировщик
Выбранный битрейт : 1024 kBit/s
Качество : Высокий
Добавление ID3-тега : Нет
Утилита сжатия : C:\Program Files (x86)\Exact Audio Copy\FLAC\FLAC.EXE
Дополнительные параметры : -6 -V -T "ARTIST=%artist%" -T "TITLE=%title%" -T "ALBUM=%albumtitle%" -T "DATE=%year%" -T "TRACKNUMBER=%tracknr%" -T "GENRE=%genre%" -T "COMMENT=%comment%" -T "BAND=%albuminterpret%" -T "ALBUMARTIST=%albuminterpret%" -T "COMPOSER=%composer%" %haslyrics%–tag-from-file=LYRICS="%lyricsfile%"%haslyrics% -T "DISCNUMBER=%cdnumber%" -T "TOTALDISCS=%totalcds%" -T "TOTALTRACKS=%numtracks%" %hascover%–picture="%coverfile%"%hascover% %source% -o %dest%


TOC извлечённого CD

Трек | Старт | Длительность | Начальный сектор | Конечный сектор
––––––––––––––––––––––––––––––––––-
1 | 0:01.00 | 4:06.67 | 75 | 18591
2 | 4:07.67 | 4:36.15 | 18592 | 39306
3 | 8:44.07 | 3:52.50 | 39307 | 56756
4 | 12:36.57 | 3:25.13 | 56757 | 72144
5 | 16:01.70 | 3:13.05 | 72145 | 86624
6 | 19:15.00 | 3:46.32 | 86625 | 103606
7 | 23:01.32 | 3:57.70 | 103607 | 121451
8 | 26:59.27 | 3:20.70 | 121452 | 136521
9 | 30:20.22 | 4:08.23 | 136522 | 155144
10 | 34:28.45 | 3:30.00 | 155145 | 170894


Характеристики диапазона извлечения и сообщения об ошибках

Выбранный диапазон

Имя файла G:\RIP\Scott Stewart & The Other Side 1987 FLAC by alzal\Scott Stewart & The Other Side - Scott Stewart & The Other Side (EK-90770).wav

Пиковый уровень 100.0 %
Скорость извлечения 7.9 X
Качество диапазона 100.0 %
CRC теста 21BA068B
CRC копии 21BA068B
Копирование… OK

Ошибок не произошло


AccurateRip: сводка

Трек 1 : извлечено точно (доверие 1) [A93F9B45] (AR v1)
Трек 2 : извлечено точно (доверие 1) [095CFB85] (AR v1)
Трек 3 : извлечено точно (доверие 1) [3A5BF883] (AR v1)
Трек 4 : извлечено точно (доверие 1) [8BB50FE3] (AR v1)
Трек 5 : извлечено точно (доверие 1) [1CBAC75B] (AR v1)
Трек 6 : извлечено точно (доверие 1) [8D6A7D87] (AR v1)
Трек 7 : извлечено точно (доверие 1) [4A858F8B] (AR v1)
Трек 8 : извлечено точно (доверие 1) [B57D5FE1] (AR v1)
Трек 9 : извлечено точно (доверие 1) [52AA2784] (AR v1)
Трек 10 : извлечено точно (доверие 1) [305F6053] (AR v1)

Все треки извлечены точно

Конец отчёта

–– CUETools DB Plugin V2.1.6

[CTDB TOCID: GIwQV79QDroOUbA9_EffOsWDv4k-] found
Submit result: GIwQV79QDroOUbA9_EffOsWDv4k- has been uploaded
Track | CTDB Status
1 | (1/1) Accurately ripped
2 | (1/1) Accurately ripped
3 | (1/1) Accurately ripped
4 | (1/1) Accurately ripped
5 | (1/1) Accurately ripped
6 | (1/1) Accurately ripped
7 | (1/1) Accurately ripped
8 | (1/1) Accurately ripped
9 | (1/1) Accurately ripped
10 | (0/1) No match


==== Контрольная сумма отчёта 9FB5D78CAC15D5017FEC7BB3A35FA89E13B7EB73A9F9512E6BEB23579BA80108 ====

––––––––––––––––––––––––––––––––––––––––
Analyzed: Scott Stewart & The Other Side / Scott Stewart & The Other Side (EK-90770)
––––––––––––––––––––––––––––––––––––––––

DR Peak RMS Duration Track
––––––––––––––––––––––––––––––––––––––––
DR14 0.00 dB -16.87 dB 4:07 01-Don't Stop
DR12 0.00 dB -15.75 dB 4:36 02-Darlin', It's You
DR14 -0.35 dB -16.54 dB 3:53 03-Restless For Your Touch
DR16 0.00 dB -18.90 dB 3:25 04-Give Me Your Lovin'
DR12 -3.90 dB -20.62 dB 3:13 05-Hold Me
DR13 -0.17 dB -17.07 dB 3:46 06-Are You Gonna Leave Me
DR13 -0.51 dB -16.22 dB 3:58 07-Love And Devotion
DR13 0.00 dB -16.24 dB 3:21 08-All You Need
DR15 0.00 dB -17.57 dB 4:08 09-Never Love This Way Again
DR12 -0.39 dB -15.96 dB 3:30 10-Media Man
––––––––––––––––––––––––––––––––––––––––

Number of tracks: 10
Official DR value: DR14

Samplerate: 44100 Hz
Channels: 2
Bits per sample: 16
Bitrate: 886 kbps
Codec: FLAC
================================================================================

Thanks to alzal

password: BlondStyle