Subcategories
Tags
Language
Tags

Second Direction - Four Corners & Steps Ahead [Recorded 1976-1978] (2018)

Posted By: gribovar
Second Direction - Four Corners & Steps Ahead [Recorded 1976-1978] (2018)

Second Direction - Four Corners & Steps Ahead [Recorded 1976-1978] (2018)
EAC Rip | FLAC (image+.cue+log) - 500 MB | MP3 CBR 320 kbps (LAME 3.93) - 182 MB | Covers - 205 MB
Genre: Jazz-Funk, Fusion | RAR 3% Rec. | Label: Sonorama Records (Sonorama C-106)

Reissue of the rare jazz, funk and fusion Library LP "Four Corners" by Second Direction. A project of the saxophonist and flutist Fritz Münzer, produced in 1976 at Tonstudio Bauer in Ludwigsburg. The new release includes six additional recordings from the band's second unreleased album from 1978, entitled "Steps Ahead", recently pulled from the archives of producer and "Joy Unlimited" founder Klaus R. Nagel.
Tracklist:

Four Corners (1976):
01. Freeland
02. Storm Flute
03. Peace
04. Praeludium No. 3
05. Steamer
06. Flying Carpet Ride
07. Blue Dilemma
08. Four Corners

Steps Ahead (Recorded 1978):
09. Steps Ahead
10. Feeling Free
11. Moving Fantasy
12. Keep Going
13. Tony's Choice
14. Last Minute

Total time: 01:17:29

Exact Audio Copy V1.3 from 2. September 2016

Отчёт EAC об извлечении, выполненном 17. июня 2021, 20:46

Second Direction / Four Corners & Steps Ahead

Дисковод: HL-DT-STDVDRAM GT70N Adapter: 1 ID: 0

Режим чтения : Достоверность
Использование точного потока : Да
Отключение кэша аудио : Да
Использование указателей C2 : Нет

Коррекция смещения при чтении : 103
Способность читать области Lead-in и Lead-out : Нет
Заполнение пропущенных сэмплов тишиной : Да
Удаление блоков с тишиной в начале и конце : Нет
При вычислениях CRC использовались нулевые сэмплы : Да
Интерфейс : Встроенный Win32-интерфейс для Win NT/2000

Выходной формат : Пользовательский кодировщик
Выбранный битрейт : 1024 kBit/s
Качество : Высокий
Добавление ID3-тега : Нет
Утилита сжатия : C:\Program Files (x86)\Exact Audio Copy\Flac\flac.exe
Дополнительные параметры : -V -8 -T "Date=%year%" -T "Genre=%genre%" %source%


TOC извлечённого CD

Трек | Старт | Длительность | Начальный сектор | Конечный сектор
––––––––––––––––––––––––––––––––––-
1 | 0:00.00 | 4:29.56 | 0 | 20230
2 | 4:29.56 | 3:58.00 | 20231 | 38080
3 | 8:27.56 | 9:47.37 | 38081 | 82142
4 | 18:15.18 | 4:17.00 | 82143 | 101417
5 | 22:32.18 | 6:32.37 | 101418 | 130854
6 | 29:04.55 | 6:23.00 | 130855 | 159579
7 | 35:27.55 | 5:03.00 | 159580 | 182304
8 | 40:30.55 | 4:48.00 | 182305 | 203904
9 | 45:18.55 | 5:50.37 | 203905 | 230191
10 | 51:09.17 | 5:21.46 | 230192 | 254312
11 | 56:30.63 | 5:39.37 | 254313 | 279774
12 | 62:10.25 | 3:52.00 | 279775 | 297174
13 | 66:02.25 | 7:43.37 | 297175 | 331936
14 | 73:45.62 | 3:43.46 | 331937 | 348707


Характеристики диапазона извлечения и сообщения об ошибках

Выбранный диапазон

Имя файла L:\CD\Second Direction - Four Corners & Steps Ahead\Second Direction - Four Corners & Steps Ahead.wav

Пиковый уровень 100.0 %
Скорость извлечения 2.2 X
Качество диапазона 100.0 %
CRC теста 8AF20E5F
CRC копии 8AF20E5F
Копирование… OK

Ошибок не произошло


AccurateRip: сводка

Трек 1 : извлечено точно (доверие 1) [C7DF879E] (AR v2)
Трек 2 : извлечено точно (доверие 1) [13CB0778] (AR v2)
Трек 3 : извлечено точно (доверие 1) [3B9F1222] (AR v2)
Трек 4 : извлечено точно (доверие 1) [5BC432E0] (AR v2)
Трек 5 : извлечено точно (доверие 1) [9724FCDD] (AR v2)
Трек 6 : извлечено точно (доверие 1) [0C80C7CB] (AR v2)
Трек 7 : извлечено точно (доверие 1) [16FD90ED] (AR v2)
Трек 8 : извлечено точно (доверие 1) [0CC7DF59] (AR v2)
Трек 9 : извлечено точно (доверие 1) [3BD32136] (AR v2)
Трек 10 : извлечено точно (доверие 1) [A0AC1668] (AR v2)
Трек 11 : извлечено точно (доверие 1) [12953F3B] (AR v2)
Трек 12 : извлечено точно (доверие 1) [16382482] (AR v2)
Трек 13 : извлечено точно (доверие 1) [FC8CD8C9] (AR v2)
Трек 14 : извлечено точно (доверие 1) [62285F44] (AR v2)

Все треки извлечены точно

Конец отчёта

–– CUETools DB Plugin V2.1.6

[CTDB TOCID: DdIXvAkDWuBOesSzslB_TzlwgH8-] found
Submit result: DdIXvAkDWuBOesSzslB_TzlwgH8- has been confirmed
Track | CTDB Status
1 | (5/5) Accurately ripped
2 | (5/5) Accurately ripped
3 | (5/5) Accurately ripped
4 | (5/5) Accurately ripped
5 | (5/5) Accurately ripped
6 | (5/5) Accurately ripped
7 | (5/5) Accurately ripped
8 | (5/5) Accurately ripped
9 | (5/5) Accurately ripped
10 | (5/5) Accurately ripped
11 | (5/5) Accurately ripped
12 | (5/5) Accurately ripped
13 | (5/5) Accurately ripped
14 | (5/5) Accurately ripped


==== Контрольная сумма отчёта 00C800DE10E2C3F924897E5E9EB6F4CD963E7C510EFD12EF1DB337BFC7B5FFCC ====

[CUETools log; Date: 19.06.2021 12:44:11; Version: 2.1.4]
[CTDB TOCID: DdIXvAkDWuBOesSzslB_TzlwgH8-] found.
Track | CTDB Status
1 | (6/6) Accurately ripped
2 | (6/6) Accurately ripped
3 | (6/6) Accurately ripped
4 | (6/6) Accurately ripped
5 | (6/6) Accurately ripped
6 | (6/6) Accurately ripped
7 | (6/6) Accurately ripped
8 | (6/6) Accurately ripped
9 | (6/6) Accurately ripped
10 | (6/6) Accurately ripped
11 | (6/6) Accurately ripped
12 | (6/6) Accurately ripped
13 | (6/6) Accurately ripped
14 | (6/6) Accurately ripped
[AccurateRip ID: 0028990a-01b11a4b-c012290e] found.
Track [ CRC | V2 ] Status
01 [c22dd0fb|c7df879e] (0+1/1) Accurately ripped
02 [f4962797|13cb0778] (0+1/1) Accurately ripped
03 [438366ff|3b9f1222] (0+1/1) Accurately ripped
04 [b133e0de|5bc432e0] (0+1/1) Accurately ripped
05 [67c4ad8d|9724fcdd] (0+1/1) Accurately ripped
06 [0035dd7b|0c80c7cb] (0+1/1) Accurately ripped
07 [28aafa18|16fd90ed] (0+1/1) Accurately ripped
08 [f28f0bc5|0cc7df59] (0+1/1) Accurately ripped
09 [a256317f|3bd32136] (0+1/1) Accurately ripped
10 [7f94f4ae|a0ac1668] (0+1/1) Accurately ripped
11 [ac847256|12953f3b] (0+1/1) Accurately ripped
12 [bbee3787|16382482] (0+1/1) Accurately ripped
13 [e43961c1|fc8cd8c9] (0+1/1) Accurately ripped
14 [859948c5|62285f44] (0+1/1) Accurately ripped

Track Peak [ CRC32 ] [W/O NULL] [ LOG ]
– 100,0 [8AF20E5F] [D1E7A633] CRC32
01 100,0 [75E7A200] [92FAC893]
02 100,0 [1C3FA311] [BBFBFB21]
03 100,0 [59087664] [2AB170F9]
04 100,0 [A7A53ECA] [075D4501]
05 100,0 [2BAFD6DA] [8A062223]
06 100,0 [C1CD8BE8] [12DF232D]
07 100,0 [36F78A48] [EDA201D5]
08 100,0 [50507370] [49FFA0F1]
09 100,0 [C5C4E891] [5EB67317]
10 100,0 [DABC7425] [4902BDCD]
11 100,0 [047241F9] [B3E111DD]
12 100,0 [6E79C48B] [1A0119B7]
13 100,0 [E635FB7D] [197EDCE7]
14 100,0 [D700CEEC] [CB8EFE69]

Thanks to Verbizki66