Tags
Language
Tags

Sergio Azzolini, Friedemann Wezel - Graupner: Bassoon and Violin Concertos (2011) (Repost)

Posted By: tirexiss
Sergio Azzolini, Friedemann Wezel - Graupner: Bassoon and Violin Concertos (2011) (Repost)

Sergio Azzolini, Friedemann Wezel - Graupner: Bassoon and Violin Concertos (2011)
EAC | FLAC (image+.cue, log) | Covers Included | 73:16 | 380 MB
Genre: Classical | Label: Carus | Catalog: CARUS83443

Graupner is best known as a composer of cantatas but this CD highlights his compositions in other genres. Ensemble il capriccio plays on replicas of historical instruments and here presents four bassoon concertos, a double concerto for bassoon and chalumeau, as well as Graupner’s only violin concerto in what are mostly world premeiere recordings.

Sergio Azzolini, Friedemann Wezel - Graupner: Bassoon and Violin Concertos (2011) (Repost)

Track List:

Johann Christoph Graupner (1683-1760)

Konzert fur Fagott in C-Dur
01. I. Vivace [0:03:51.41]
02. II. Largo e Giusto [0:03:44.14]
03. III. Allegro [0:03:55.38]
Konzert fur Fagott in c-Moll
04. I. Andante [0:04:07.10]
05. II. Vivace [0:06:32.35]
06. III. Largo [0:01:28.56]
07. IV. Allegro [0:01:50.33]
Konzert fur Violine in A-Dur
08. I. Allegro [0:04:08.58]
09. II. Andante [0:03:39.18]
10. III. Allegro [0:05:15.74]
Konzert fur Fagott :
11. I. Allegro [0:03:32.34]
12. II. Largo [0:02:37.24]
13. III. Allegro [0:02:14.20]
Konzert fur Chalumeau, Fagott & Violoncello
14. I. Vivace [0:03:53.58]
15. [ohne Beseichnung] [0:02:25.26]
16. Allegro [0:04:43.57]
Konzert fur Fagott in B-Dur
17. I. Moderato [0:06:35.65]
18. II. Affetuoso [0:02:02.59]
19. III. Allegro [0:06:34.53]

Performers:
Ensemble Il Capriccio
Sergio Azzolini, fagot
Friedemann Wezel. violin
Christian Leitherer, chalumeau

Exact Audio Copy V1.0 beta 3 from 29. August 2011

EAC extraction logfile from 10. October 2013, 21:49

Friedemann Wezel / Graupner - Bassoon and Violin Concertos - Friedemann Wezel

Used drive : TSSTcorpCDDVDW SH-222BB Adapter: 2 ID: 1

Read mode : Secure
Utilize accurate stream : Yes
Defeat audio cache : Yes
Make use of C2 pointers : No

Read offset correction : 6
Overread into Lead-In and Lead-Out : No
Fill up missing offset samples with silence : Yes
Delete leading and trailing silent blocks : No
Null samples used in CRC calculations : Yes
Used interface : Native Win32 interface for Win NT & 2000

Used output format : User Defined Encoder
Selected bitrate : 1024 kBit/s
Quality : High
Add ID3 tag : No
Command line compressor : C:\Program Files\Exact Audio Copy\Flac\flac.exe
Additional command line options : -8 -V -T "TITLE=%title%" -T "ARTIST=%artist%" -T "ALBUMARTIST=%albumartist%" -T "ALBUM=%albumtitle%" -T "DATE=%year%" -T "TRACKNUMBER=%tracknr%" -T "TRACKTOTAL=%numtracks%" -T "GENRE=%genre%" -T "COMMENT=%comment%" -T "PERFORMER=%albuminterpret%" -T "COMPOSER=%composer%" %source% -o %dest%


TOC of the extracted CD

Track | Start | Length | Start sector | End sector
––––––––––––––––––––––––––––-
1 | 0:00.00 | 3:51.41 | 0 | 17365
2 | 3:51.41 | 3:44.14 | 17366 | 34179
3 | 7:35.55 | 3:55.38 | 34180 | 51842
4 | 11:31.18 | 4:07.10 | 51843 | 70377
5 | 15:38.28 | 6:32.35 | 70378 | 99812
6 | 22:10.63 | 1:28.56 | 99813 | 106468
7 | 23:39.44 | 1:50.33 | 106469 | 114751
8 | 25:30.02 | 4:08.58 | 114752 | 133409
9 | 29:38.60 | 3:39.18 | 133410 | 149852
10 | 33:18.03 | 5:15.74 | 149853 | 173551
11 | 38:34.02 | 3:32.34 | 173552 | 189485
12 | 42:06.36 | 2:37.24 | 189486 | 201284
13 | 44:43.60 | 2:14.20 | 201285 | 211354
14 | 46:58.05 | 3:53.58 | 211355 | 228887
15 | 50:51.63 | 2:25.26 | 228888 | 239788
16 | 53:17.14 | 4:43.57 | 239789 | 261070
17 | 58:00.71 | 6:35.65 | 261071 | 290760
18 | 64:36.61 | 2:02.59 | 290761 | 299969
19 | 66:39.45 | 6:34.53 | 299970 | 329572


Range status and errors

Selected range

Filename G:\Ripped general\[8465] Graupner – Bassoon and Violin Concertos – Friedemann Wezel\Graupner - Bassoon and Violin Concertos - Friedemann Wezel.wav

Peak level 91.6 %
Extraction speed 7.3 X
Range quality 100.0 %
Test CRC 0474D348
Copy CRC 0474D348
Copy OK

No errors occurred


AccurateRip summary

Track 1 accurately ripped (confidence 6) [44679525] (AR v2)
Track 2 accurately ripped (confidence 6) [55631BA4] (AR v2)
Track 3 accurately ripped (confidence 6) [DE5431DC] (AR v2)
Track 4 accurately ripped (confidence 6) [6A651EA9] (AR v2)
Track 5 accurately ripped (confidence 6) [61895EDF] (AR v2)
Track 6 accurately ripped (confidence 6) [9C7048A2] (AR v2)
Track 7 accurately ripped (confidence 6) [74206507] (AR v2)
Track 8 accurately ripped (confidence 6) [447EA1F9] (AR v2)
Track 9 accurately ripped (confidence 6) [FBDC85B4] (AR v2)
Track 10 accurately ripped (confidence 6) [69508DC1] (AR v2)
Track 11 accurately ripped (confidence 6) [16AF0368] (AR v2)
Track 12 accurately ripped (confidence 6) [072354DA] (AR v2)
Track 13 accurately ripped (confidence 6) [0722743C] (AR v2)
Track 14 accurately ripped (confidence 6) [F2478254] (AR v2)
Track 15 accurately ripped (confidence 6) [1E73C047] (AR v2)
Track 16 accurately ripped (confidence 6) [15C96BB5] (AR v2)
Track 17 accurately ripped (confidence 6) [4BA6D816] (AR v2)
Track 18 accurately ripped (confidence 6) [E3F39532] (AR v2)
Track 19 accurately ripped (confidence 6) [09BF7637] (AR v2)

All tracks accurately ripped

End of status report

Thanks to the Original ripper (unknown)!

Welcome to my blog!

Download: