Tags
Language
Tags

Sergio Azzolini, Giovanni de Angeli, Leonardo Muzii, Camerata Rousseau - Kozeluh: Concertos & Symphony (2021)

Posted By: ArlegZ
Sergio Azzolini, Giovanni de Angeli, Leonardo Muzii, Camerata Rousseau - Kozeluh: Concertos & Symphony (2021)

Sergio Azzolini, Giovanni de Angeli, Leonardo Muzii, Camerata Rousseau - Kozeluh: Concertos & Symphony (2021)
EAC | FLAC | Image (Cue & Log) ~ 354 Mb | Total time: 76:30 | Scans included
Classical | Label: Sony Classical | # 19439788202 | Recorded: 2016

As one of the most respected Czech composers of his time, Jan Anton Kozeluch (1738-1814) composed around 45 masses and Italian operas, among other things, but was overshadowed by his cousin Leopold Antonín Kozeluch (1747-1818), with whom he is still often confused today. Kozeluch also wrote two bassoon concertos. The Bassoon Concerto in C major was one of the most frequently performed masterpieces for bassoon in the 18th century, and with it the Italian bassoonist Sergio Azzolini is now opening the Kozeluch album with the Camerata Rousseau under the direction of Leonardo Muzii. Azzolini is also the soloist in the first recording of the second bassoon concerto in B flat major, an equally brilliant work, but the authorship of which is not entirely clear - the work could also have come from his cousin Leopold Kozeluch. Sergio Azzolini plays the two bassoon concertos on an original instrument from around 1794 by Kaspar Tauber, which allows the soloist a soft singing and agility that are difficult to achieve on the modern bassoon. The two bassoon concertos are juxtaposed with the oboe concert by Jan Anton Kozeluch - the soloist is the Italian oboist Giovanni de Angeli, who plays on a copy of a Grenser oboe from Dresden. The stormy G minor symphony by Leopold Kozeluch concludes the interesting album.

Performer:
Sergio Azzolini, bassoon
Giovanni de Angeli, oboe
Camerata Rousseau
Leonardo Muzii, direction

Track List:
Jan Anton Kozeluh (1738–1814)
Bassoon Concerto in C Major
01. I. Allegro
02. II. Larghetto
03. III. Allegro assai
Concerto For Oboe And Orchestra In F Major
04. I. Vivace
05. II. Adagio
06. III. Rondo. Allegretto
Leopold Kozeluch (1747–1818)
Concerto for Bassoon in B flat major
07. I. Allegro moderato
08. II. Adagio
09. III. Allegro
Jan Anton Kozeluh
Symphony in G minor, Op. 22, No. 3
10. I. Allegro
11. II. Adagio
12. III. Presto


Exact Audio Copy V1.3 from 2. September 2016

EAC extraction logfile from 1. March 2021, 20:37

Leonardo Muzii, Camerata Rousseau / Kozeluch - Concertos and Symphony

Used drive : HL-DT-STDVDRAM GH24NS95 Adapter: 1 ID: 0

Read mode : Secure
Utilize accurate stream : Yes
Defeat audio cache : Yes
Make use of C2 pointers : No

Read offset correction : 6
Overread into Lead-In and Lead-Out : No
Fill up missing offset samples with silence : Yes
Delete leading and trailing silent blocks : No
Null samples used in CRC calculations : Yes
Used interface : Native Win32 interface for Win NT & 2000

Used output format : User Defined Encoder
Selected bitrate : 768 kBit/s
Quality : High
Add ID3 tag : No
Command line compressor : C:\Program Files\Exact Audio Copy\FLAC\FLAC.EXE
Additional command line options : -6 -V -T "ARTIST=%artist%" -T "TITLE=%title%" -T "ALBUM=%albumtitle%" -T "DATE=%year%" -T "TRACKNUMBER=%tracknr%" -T "GENRE=%genre%" -T "COMMENT=%comment%" -T "BAND=%albuminterpret%" -T "ALBUMARTIST=%albuminterpret%" -T "COMPOSER=%composer%" %haslyrics%–tag-from-file=LYRICS="%lyricsfile%"%haslyrics% -T "DISCNUMBER=%cdnumber%" -T "TOTALDISCS=%totalcds%" -T "TOTALTRACKS=%numtracks%" %hascover%–picture="%coverfile%"%hascover% %source% -o %dest%


TOC of the extracted CD

Track | Start | Length | Start sector | End sector
––––––––––––––––––––––––––––-
1 | 0:00.00 | 7:41.45 | 0 | 34619
2 | 7:41.45 | 9:00.24 | 34620 | 75143
3 | 16:41.69 | 3:33.54 | 75144 | 91172
4 | 20:15.48 | 7:29.28 | 91173 | 124875
5 | 27:45.01 | 7:05.64 | 124876 | 156814
6 | 34:50.65 | 6:48.69 | 156815 | 187483
7 | 41:39.59 | 5:04.40 | 187484 | 210323
8 | 46:44.24 | 4:42.65 | 210324 | 231538
9 | 51:27.14 | 4:32.46 | 231539 | 251984
10 | 55:59.60 | 7:20.70 | 251985 | 285054
11 | 63:20.55 | 7:31.06 | 285055 | 318885
12 | 70:51.61 | 5:07.14 | 318886 | 341924


Range status and errors

Selected range

Filename C:\Program Files\Exact Audio Copy\Leonardo Muzii - Kozeluch - Concertos and Symphony.wav

Peak level 99.1 %
Extraction speed 2.1 X
Range quality 99.9 %
Test CRC CC519DE8
Copy CRC CC519DE8
Copy OK

No errors occurred

End of status report

Sergio Azzolini, Giovanni de Angeli, Leonardo Muzii, Camerata Rousseau - Kozeluh: Concertos & Symphony (2021)

Thanks to the original releaser