Tags
Language
Tags

Sergiu Celibidache conducts Berliner Philharmoniker: Haydn, Mendelssohn, Debussy, Hindemith, Busoni (1988)

Posted By: ArlegZ
Sergiu Celibidache conducts Berliner Philharmoniker: Haydn, Mendelssohn, Debussy, Hindemith, Busoni (1988)

Sergiu Celibidache conducts Berliner Philharmoniker: Haydn, Mendelssohn, Debussy, Hindemith, Busoni (1988)
EAC | FLAC | Image (Cue & Log) ~ 550 Mb | Total time: 56:31+72:27 | Scans included
Classical | Label: Nuova Era | # 6348/49 | Recorded: 1948-1953

Die Zusammenarbeit zwischen Sergiu Celibidache und den Berliner Philharmonikern begann am 29. August 1945, im einem der tragischsten Momente der Orchestergeschichte. Das angestammte Haus, der Konzertsaal in der Bernburger Straße, lag zerbombt in Schutt und Asche, Chefdirigent Wilhelm Furtwängler durfte, auf sein Entnazifizierungsverfahren wartend, nicht dirigieren und Interimsdirigent Leo Borchard war wenige Tage zuvor versehentlich von einem amerikanischen Wachposten erschossen worden. Das verwaiste Orchester suchte händeringend nach einem Leiter, der die bereits geplanten Konzerte übernehmen konnte. Von den großen Dirigenten stand keiner zur Verfügung und so erhielt ein junger, unbekannter Hochschulabsolvent, der gerade den Dirigentenwettbewerb des Rundfunkorchesters gewonnen hatte, seine große Chance: Sergiu Celibidache. Der damals 33-jährige Rumäne, Schüler von Heinz Tiessen und Walter Gmeindl sowie ein großer Bewunderer Furtwänglers, besaß wenig Erfahrung, aber Talent, Ehrgeiz und Charisma.
Bei seinem Antrittskonzert dirigierte er Rossinis Ouvertüre zum Barbier von Sevilla, Webers Fagottkonzert mit dem philharmonischen Solo-Fagottist Oskar Rothensteiner als Solist und Antonín Dvořáks Symphonie Aus der neuen Welt. Das war der Anfang einer intensiven, fruchtbaren Zusammenarbeit. Celibidache lenkte das Orchester engagiert und ambitioniert durch die schwierige Nachkriegszeit und legte dabei den Grundstein für seine eigene Karriere. Die Philharmoniker und der Dirigent bespielten ganz unterschiedliche Berliner Orte, den Titania-Palast in Steglitz, den Hockey-Club in Dahlem, die Städtische Oper oder den Sendesaal im Haus des Rundfunks, sie gaben Konzerte für die alliierten Truppen und das einheimische Publikum, gingen gemeinsam auf Tournee. Der Neuling, der wegen seines exaltierten, manieristischen Dirigierstils von der Presse auch bespöttelt wurde, erarbeitete sich mit den Orchester ein breites Repertoire: Haydn, Mozart, Beethoven, Brahms, Tschaikowsky, Mendelsohn Bartholdy, Wagner, französische und russische Komponisten – beispielsweise dirigierte Celibidache im Dezember 1946 die deutsche Erstaufführung von Dmitri Schostakowitschs Siebter Symphonie, der sogenannten Leningrader.

Performer:
Gerhard Purchel, piano (Hindemith)
Siegfried Borries, violin (Busoni)
Berliner Philharmoniker
Sergiu Celibidache, conductor

Track List:
CD1:
Joseph Haydn (1732-1809)
Symphony No. 104 "London"
01. 1. Adagio, Allegro
02. 2. Andante
03. 3. Minuetto, Allegro
04. 4. Finale, Spiritoso
Felix Mendelssohn-Bartholdy (1809-1847)
Symphony No. 4 "Italian"
05. 1. Allegro vivace
06. 2. Andante con moto
07. 3. Con moto moderato
08. 4. Saltarello. Presto
CD2:
Claude Debussy (1862-1918)
01. Jeux
Paul Hindemith (1895-1963)
Piano Concerto
02. Moderrately fast
03. Slow
04. Medley "Tre fontane"
Ferruccio Busoni (1866-1924)
Violin Concerto
05. 1. Allegro moderato
06. 2. Quasi andante
07. 3. Allegro impetuoso


Exact Audio Copy V1.6 from 23. October 2020

EAC extraction logfile from 27. October 2021, 10:04

Sergiu Celibidache / Sergiu Celibidache conducts Berliner Philharmoniker [Disk 1]

Used drive : HL-DT-STDVDRAM GH24NSD5 Adapter: 1 ID: 0

Read mode : Secure
Utilize accurate stream : Yes
Defeat audio cache : Yes
Make use of C2 pointers : No

Read offset correction : 6
Overread into Lead-In and Lead-Out : No
Fill up missing offset samples with silence : Yes
Delete leading and trailing silent blocks : No
Null samples used in CRC calculations : Yes
Used interface : Native Win32 interface for Win NT & 2000

Used output format : User Defined Encoder
Selected bitrate : 1024 kBit/s
Quality : High
Add ID3 tag : No
Command line compressor : C:\Program Files (x86)\Exact Audio Copy\FLAC\FLAC.EXE
Additional command line options : -6 -V -T "ARTIST=%artist%" -T "TITLE=%title%" -T "ALBUM=%albumtitle%" -T "DATE=%year%" -T "TRACKNUMBER=%tracknr%" -T "GENRE=%genre%" -T "COMMENT=%comment%" -T "BAND=%albuminterpret%" -T "ALBUMARTIST=%albuminterpret%" -T "COMPOSER=%composer%" %haslyrics%–tag-from-file=LYRICS="%lyricsfile%"%haslyrics% -T "DISCNUMBER=%cdnumber%" -T "TOTALDISCS=%totalcds%" -T "TOTALTRACKS=%numtracks%" %hascover%–picture="%coverfile%"%hascover% %source% -o %dest% -T "RIPPER=Bodtje"


TOC of the extracted CD

Track | Start | Length | Start sector | End sector
––––––––––––––––––––––––––––-
1 | 0:00.33 | 8:02.00 | 33 | 36182
2 | 8:02.33 | 9:25.00 | 36183 | 78557
3 | 17:27.33 | 6:13.00 | 78558 | 106532
4 | 23:40.33 | 4:47.00 | 106533 | 128057
5 | 28:27.33 | 8:08.00 | 128058 | 164657
6 | 36:35.33 | 7:03.00 | 164658 | 196382
7 | 43:38.33 | 7:29.00 | 196383 | 230057
8 | 51:07.33 | 5:24.00 | 230058 | 254357


Range status and errors

Selected range

Filename I:\Rips\Various - Celibidache conducts Berliner Philharmoniker\CD1\Sergiu Celibidache - Sergiu Celibidache conducts Berliner Philharmoniker [Disk 1].wav

Peak level 87.0 %
Extraction speed 1.7 X
Range quality 100.0 %
Test CRC B8838816
Copy CRC B8838816
Copy OK

No errors occurred


AccurateRip summary

Track 1 not present in database
Track 2 not present in database
Track 3 not present in database
Track 4 not present in database
Track 5 not present in database
Track 6 not present in database
Track 7 not present in database
Track 8 not present in database

None of the tracks are present in the AccurateRip database

End of status report

–– CUETools DB Plugin V2.1.6

[CTDB TOCID: 9VQGXxEarA6azPGxvEQQX_Z6oAY-] found
Submit result: 9VQGXxEarA6azPGxvEQQX_Z6oAY- has been confirmed
Track | CTDB Status
1 | (3/3) Accurately ripped
2 | (3/3) Accurately ripped
3 | (3/3) Accurately ripped
4 | (3/3) Accurately ripped
5 | (3/3) Accurately ripped
6 | (3/3) Accurately ripped
7 | (3/3) Accurately ripped
8 | (3/3) Accurately ripped


==== Log checksum 88E6F1C0DBFCB38A3B3CA793C413A68645A0AE469AA7304DDFF44974BECBDA1A ====


Exact Audio Copy V1.6 from 23. October 2020

EAC extraction logfile from 27. October 2021, 11:57

Sergiu Celibidache / Sergiu Celibidache conducts Berliner Philharmoniker [Disk 2]

Used drive : HL-DT-STDVDRAM GH24NSD5 Adapter: 1 ID: 0

Read mode : Secure
Utilize accurate stream : Yes
Defeat audio cache : Yes
Make use of C2 pointers : No

Read offset correction : 6
Overread into Lead-In and Lead-Out : No
Fill up missing offset samples with silence : Yes
Delete leading and trailing silent blocks : No
Null samples used in CRC calculations : Yes
Used interface : Native Win32 interface for Win NT & 2000

Used output format : User Defined Encoder
Selected bitrate : 1024 kBit/s
Quality : High
Add ID3 tag : No
Command line compressor : C:\Program Files (x86)\Exact Audio Copy\FLAC\FLAC.EXE
Additional command line options : -6 -V -T "ARTIST=%artist%" -T "TITLE=%title%" -T "ALBUM=%albumtitle%" -T "DATE=%year%" -T "TRACKNUMBER=%tracknr%" -T "GENRE=%genre%" -T "COMMENT=%comment%" -T "BAND=%albuminterpret%" -T "ALBUMARTIST=%albuminterpret%" -T "COMPOSER=%composer%" %haslyrics%–tag-from-file=LYRICS="%lyricsfile%"%haslyrics% -T "DISCNUMBER=%cdnumber%" -T "TOTALDISCS=%totalcds%" -T "TOTALTRACKS=%numtracks%" %hascover%–picture="%coverfile%"%hascover% %source% -o %dest% -T "RIPPER=Bodtje"


TOC of the extracted CD

Track | Start | Length | Start sector | End sector
––––––––––––––––––––––––––––-
1 | 0:00.33 | 16:09.00 | 33 | 72707
2 | 16:09.33 | 9:06.00 | 72708 | 113657
3 | 25:15.33 | 9:32.00 | 113658 | 156557
4 | 34:47.33 | 11:59.00 | 156558 | 210482
5 | 46:46.33 | 8:15.00 | 210483 | 247607
6 | 55:01.33 | 10:29.00 | 247608 | 294782
7 | 65:30.33 | 6:57.00 | 294783 | 326057


Range status and errors

Selected range

Filename I:\Rips\Various - Celibidache conducts Berliner Philharmoniker\CD2\Sergiu Celibidache - Sergiu Celibidache conducts Berliner Philharmoniker [Disk 2].wav

Peak level 95.3 %
Extraction speed 2.1 X
Range quality 100.0 %
Test CRC EF5A4DDD
Copy CRC EF5A4DDD
Copy OK

No errors occurred


AccurateRip summary

Track 1 not present in database
Track 2 not present in database
Track 3 not present in database
Track 4 not present in database
Track 5 not present in database
Track 6 not present in database
Track 7 not present in database

None of the tracks are present in the AccurateRip database

End of status report

–– CUETools DB Plugin V2.1.6

[CTDB TOCID: 9cDNacjIU31BXK4ZiLZqMlPFBz8-] found
Submit result: 9cDNacjIU31BXK4ZiLZqMlPFBz8- has been confirmed
Track | CTDB Status
1 | (2/2) Accurately ripped
2 | (2/2) Accurately ripped
3 | (2/2) Accurately ripped
4 | (2/2) Accurately ripped
5 | (2/2) Accurately ripped
6 | (2/2) Accurately ripped
7 | (2/2) Accurately ripped


==== Log checksum 5E425E3AB1EC0CFF4100D17444E59D5DAC147FBE32698647787BD77798298965 ====

Sergiu Celibidache conducts Berliner Philharmoniker: Haydn, Mendelssohn, Debussy, Hindemith, Busoni (1988)

Thanks to the original releaser