Tags
Language
Tags
June 2024
Su Mo Tu We Th Fr Sa
26 27 28 29 30 31 1
2 3 4 5 6 7 8
9 10 11 12 13 14 15
16 17 18 19 20 21 22
23 24 25 26 27 28 29
30 1 2 3 4 5 6

Shania Twain - Shania Twain (1993)

Posted By: popsakov
Shania Twain - Shania Twain (1993)

Shania Twain - Shania Twain (1993)
EAC Rip | FLAC (Img) + Cue + Log ~ 241 Mb | MP3 CBR320 ~ 115 Mb
Full Scans | 00:30:51 | RAR 5% Recovery
Country, Country Rock | Mercury Records #314-514 422-2

Shania Twain is the self-titled debut album by Shania Twain, originally released in 1993. Although not a hit when originally released, Twain's subsequent successful albums gained her legions of fans, which generated more interest in Shania Twain causing it to be certified platinum in the US for shipments of one million copies.

***************

Shania Twain - Shania Twain (1993)

Shania Twain - Shania Twain (1993)

Track List:

01. What Made You Say That [0:02:59.60]
02. You Lay A Whole Lot Of Love On Me [0:02:48.68]
03. Dance With The One That Brought You [0:02:24.37]
04. Still Under The Weather [0:03:07.15]
05. God Ain't Gonna Getcha For That [0:02:45.33]
06. Got A Hold On Me [0:02:14.55]
07. There Goes The Neighborhood [0:03:17.50]
08. Forget Me [0:03:21.35]
09. When He Leaves You [0:04:21.65]
10. Crime Of The Century [0:03:29.37]

Personnel:
Drums, Percussion: Paul Leim, Larrie Londin, Terry McMillan
Bass: Mike Brignardello, Glenn Worf
Guitars: Mark Casstevens, Allen Frank Estes, Sonny Garrish, Steve Gibson, Chris Leuzinger, Billy Joe Walker, John Willis, Reggie Young
Keyboards, Synthesizers: David Briggs, Costo Davis, Gary Prim
Harmonica: Terry McMillan, Jelly Roll Johnson
Backing Vocals: Anthony Martin, John Wesley Ryles, Ronny Scaife, Cindy Richardson Walker, Dennis Wilson, Curtis Young

Exact Audio Copy V1.0 beta 3 from 29. August 2011

EAC extraction logfile from 21. March 2014, 22:39

Shania Twain / Shania Twain

Used drive : ATAPI iHAS124 D Adapter: 0 ID: 2

Read mode : Secure
Utilize accurate stream : Yes
Defeat audio cache : Yes
Make use of C2 pointers : No

Read offset correction : 6
Overread into Lead-In and Lead-Out : No
Fill up missing offset samples with silence : Yes
Delete leading and trailing silent blocks : No
Null samples used in CRC calculations : Yes
Used interface : Installed external ASPI interface

Used output format : User Defined Encoder
Selected bitrate : 1024 kBit/s
Quality : High
Add ID3 tag : No
Command line compressor : C:\Program Files (x86)\Exact Audio Copy\Flac\flac.exe
Additional command line options : -6 -V -T "ARTIST=%artist%" -T "TITLE=%title%" -T "ALBUM=%albumtitle%" -T "DATE=%year%" -T "TRACKNUMBER=%tracknr%" -T "GENRE=%genre%" -T "COMMENT=%comment%" -T "BAND=%albuminterpret%" -T "COMPOSER=%composer%" %haslyrics%–tag-from-file=LYRICS="%lyricsfile%"%haslyrics% -T "DISCNUMBER=%cdnumber%" -T "TOTALDISCS=%totalcds%" -T "TOTALTRACKS=%numtracks%" %hascover%–picture="%coverfile%"%hascover% %source% -o %dest%


TOC of the extracted CD

Track | Start | Length | Start sector | End sector
––––––––––––––––––––––––––––-
1 | 0:00.32 | 2:59.60 | 32 | 13516
2 | 3:00.17 | 2:48.68 | 13517 | 26184
3 | 5:49.10 | 2:24.37 | 26185 | 37021
4 | 8:13.47 | 3:07.15 | 37022 | 51061
5 | 11:20.62 | 2:45.33 | 51062 | 63469
6 | 14:06.20 | 2:14.55 | 63470 | 73574
7 | 16:21.00 | 3:17.50 | 73575 | 88399
8 | 19:38.50 | 3:21.35 | 88400 | 103509
9 | 23:00.10 | 4:21.65 | 103510 | 123149
10 | 27:22.00 | 3:29.37 | 123150 | 138861


Range status and errors

Selected range

Filename C:\mm\Shania Twain\1993 - Shania Twain [314-514 422-2]\Shania Twain - Shania Twain.wav

Peak level 100.0 %
Extraction speed 7.6 X
Range quality 100.0 %
Test CRC 8A0E046E
Copy CRC 8A0E046E
Copy OK

No errors occurred


AccurateRip summary

Track 1 accurately ripped (confidence 26) [21F6F41B] (AR v2)
Track 2 accurately ripped (confidence 25) [D467F4EA] (AR v2)
Track 3 accurately ripped (confidence 24) [0705CAFA] (AR v2)
Track 4 accurately ripped (confidence 25) [1B36B853] (AR v2)
Track 5 accurately ripped (confidence 27) [6AC72253] (AR v2)
Track 6 accurately ripped (confidence 24) [DB4A428C] (AR v2)
Track 7 accurately ripped (confidence 25) [326E2064] (AR v2)
Track 8 accurately ripped (confidence 23) [A5D3ED20] (AR v2)
Track 9 accurately ripped (confidence 24) [8F8A49DC] (AR v2)
Track 10 accurately ripped (confidence 25) [19BA0FB0] (AR v2)

All tracks accurately ripped

End of status report

[CUETools log; Date: 17.01.2017 1:56:25; Version: 2.1.5]
Pregap length 00:00:32.
[CTDB TOCID: 46VMkJr8S4DpjAXWkHwfiiV73CA-] found.
Track | CTDB Status
1 | (51/56) Accurately ripped
2 | (51/56) Accurately ripped
3 | (51/56) Accurately ripped
4 | (51/56) Accurately ripped
5 | (51/56) Accurately ripped
6 | (51/56) Accurately ripped
7 | (51/56) Accurately ripped
8 | (51/56) Accurately ripped
9 | (50/56) Accurately ripped
10 | (51/56) Accurately ripped
[AccurateRip ID: 000af7c1-00588a8c-87073b0a] found.
Track [ CRC | V2 ] Status
01 [b01932c2|21f6f41b] (035+040/137) Accurately ripped
02 [b6542fcf|d467f4ea] (033+039/133) Accurately ripped
03 [2b718562|0705cafa] (033+038/132) Accurately ripped
04 [3432b58c|1b36b853] (033+039/133) Accurately ripped
05 [34b9a948|6ac72253] (033+041/135) Accurately ripped
06 [c446ffa5|db4a428c] (033+038/132) Accurately ripped
07 [a300144d|326e2064] (032+039/133) Accurately ripped
08 [33535974|a5d3ed20] (033+037/132) Accurately ripped
09 [076bbfc5|8f8a49dc] (033+038/133) Accurately ripped
10 [8e0f1e83|19ba0fb0] (033+039/134) Accurately ripped
Offsetted by -2177:
01 [27c39b0f] (027/137) Accurately ripped
02 [ac9d7b3e] (026/133) Accurately ripped
03 [08e4af53] (026/132) Accurately ripped
04 [671065af] (026/133) Accurately ripped
05 [43590dca] (026/135) Accurately ripped
06 [ff8f7693] (026/132) Accurately ripped
07 [1a0ca761] (026/133) Accurately ripped
08 [2677e1f6] (026/132) Accurately ripped
09 [848df4ca] (026/133) Accurately ripped
10 [373eb6c8] (026/134) Accurately ripped
Offsetted by -751:
01 [d125e325] (003/137) Accurately ripped
02 [38ae61f0] (003/133) Accurately ripped
03 [8c4c57e1] (003/132) Accurately ripped
04 [ddacedb9] (003/133) Accurately ripped
05 [e8a163a6] (003/135) Accurately ripped
06 [5124bad7] (003/132) Accurately ripped
07 [9c3555f9] (003/133) Accurately ripped
08 [e1a1afd2] (003/132) Accurately ripped
09 [18d5dbf0] (003/133) Accurately ripped
10 [6e95036e] (003/134) Accurately ripped

Track Peak [ CRC32 ] [W/O NULL] [ LOG ]
– 100,0 [8A0E046E] [A102CB48] CRC32
01 100,0 [F74049FE] [45918059]
02 97,8 [41FBF045] [024BC94F]
03 99,2 [82F9BD30] [93CEE1EB]
04 98,4 [2B1F8ECA] [A3A4B501]
05 100,0 [5E04C45F] [02402A7E]
06 96,1 [CE991C2C] [A7F64B53]
07 100,0 [131457D1] [258A7FA3]
08 100,0 [F92E3B56] [DC2833DB]
09 97,2 [F3F51312] [5623BC97]
10 100,0 [F500C917] [804496C0]

Shania Twain - Shania Twain (1993)


See also:

Shania Twain - Greatest Hits (2004)

All thanks go to sergych

>>> My Blog <<<

DOWNLOAD: