Tags
Language
Tags

Shirley Scott - Legends Of Acid Jazz [Recorded 1961] (1998)

Posted By: gribovar
Shirley Scott - Legends Of Acid Jazz [Recorded 1961] (1998)

Shirley Scott - Legends Of Acid Jazz [Recorded 1961] (1998)
EAC Rip | FLAC (tracks+.cue+log) - 486 MB | Covers (6 MB) included
Genre: Jazz, Soul Jazz | RAR 3% Rec. | Label: Prestige Records (PRCD-24200-2)

A smart combination of two 1961 albums, Hip Soul and Hip Twist, both of which featured Stanley Turrentine on sax. Hip Soul is the smokier and livelier of the pair, especially on "Stanley's Time" and the Turrentine-composed title track; the material is delivered with a taut intelligence. Hip Twist doesn't suffer much in comparison, though, and gives Scott a bit more presence, as she introduces several themes with impassioned swirls; unlike Hip Soul, it has a couple of tunes from her own pen.
Tracklist:

Hip Soul (1961):
01. Hip Soul
02. 411 West
03. By Myself
04. Trane's Blues
05. Stanley's Time
06. Out Of This World

Hip Twist (1962):
07. Hip Twist
08. At Last
09. Rippin' An' Runnin'
10. The Very Thought Of You
11. Violent Blues
12. That's All
13. All Tore Down

Total time: 01:17:55

Exact Audio Copy V0.99 prebeta 4 from 23. January 2008

EAC extraction logfile from 4. May 2008, 15:21

Shirley Scott / Legends Of Acid Jazz

Used drive : SONY DVD RW DRU-810A Adapter: 1 ID: 0

Read mode : Secure
Utilize accurate stream : Yes
Defeat audio cache : Yes
Make use of C2 pointers : No

Read offset correction : 618
Overread into Lead-In and Lead-Out : No
Fill up missing offset samples with silence : Yes
Delete leading and trailing silent blocks : No
Null samples used in CRC calculations : Yes
Used interface : Native Win32 interface for Win NT & 2000
Gap handling : Appended to previous track

Used output format : User Defined Encoder
Selected bitrate : 768 kBit/s
Quality : High
Add ID3 tag : No
Command line compressor : C:\Program Files\Exact Audio Copy\FLAC\FLAC.EXE
Additional command line options : -6 -V -T "ARTIST=%a" -T "TITLE=%t" -T "ALBUM=%g" -T "DATE=%y" -T "TRACKNUMBER=%n" -T "GENRE=%m" -T "COMMENT=%e" %s -o %d


TOC of the extracted CD

Track | Start | Length | Start sector | End sector
––––––––––––––––––––––––––––-
1 | 0:00.00 | 6:31.25 | 0 | 29349
2 | 6:31.25 | 6:33.67 | 29350 | 58891
3 | 13:05.17 | 5:59.28 | 58892 | 85844
4 | 19:04.45 | 4:56.20 | 85845 | 108064
5 | 24:00.65 | 4:22.10 | 108065 | 127724
6 | 28:23.00 | 11:18.02 | 127725 | 178576
7 | 39:41.02 | 5:20.55 | 178577 | 202631
8 | 45:01.57 | 5:30.08 | 202632 | 227389
9 | 50:31.65 | 5:23.35 | 227390 | 251649
10 | 55:55.25 | 3:50.50 | 251650 | 268949
11 | 59:46.00 | 6:15.62 | 268950 | 297136
12 | 66:01.62 | 6:20.38 | 297137 | 325674
13 | 72:22.25 | 5:32.70 | 325675 | 350644


Track 1

Filename K:\New Rips\Shirley Scott - Legends Of Acid Jazz (1961) [FLAC]\01 - Hip Soul.wav

Pre-gap length 0:00:02.00

Peak level 96.5 %
Track quality 99.9 %
Test CRC 80CC98B1
Copy CRC 80CC98B1
Track not present in AccurateRip database
Copy OK

Track 2

Filename K:\New Rips\Shirley Scott - Legends Of Acid Jazz (1961) [FLAC]\02 - 411 West.wav

Pre-gap length 0:00:02.93

Peak level 99.9 %
Track quality 100.0 %
Test CRC 642B31C1
Copy CRC 642B31C1
Track not present in AccurateRip database
Copy OK

Track 3

Filename K:\New Rips\Shirley Scott - Legends Of Acid Jazz (1961) [FLAC]\03 - By Myself.wav

Pre-gap length 0:00:04.26

Peak level 94.3 %
Track quality 100.0 %
Test CRC 2F05BADF
Copy CRC 2F05BADF
Track not present in AccurateRip database
Copy OK

Track 4

Filename K:\New Rips\Shirley Scott - Legends Of Acid Jazz (1961) [FLAC]\04 - Trane's Blues.wav

Pre-gap length 0:00:02.53

Peak level 96.8 %
Track quality 100.0 %
Test CRC 0CF11D41
Copy CRC 0CF11D41
Track not present in AccurateRip database
Copy OK

Track 5

Filename K:\New Rips\Shirley Scott - Legends Of Acid Jazz (1961) [FLAC]\05 - Stanley's Time.wav

Pre-gap length 0:00:02.80

Peak level 97.7 %
Track quality 100.0 %
Test CRC 81D7D655
Copy CRC 81D7D655
Track not present in AccurateRip database
Copy OK

Track 6

Filename K:\New Rips\Shirley Scott - Legends Of Acid Jazz (1961) [FLAC]\06 - Out Of This World.wav

Pre-gap length 0:00:04.13

Peak level 95.5 %
Track quality 100.0 %
Test CRC F2BD2FB6
Copy CRC F2BD2FB6
Track not present in AccurateRip database
Copy OK

Track 7

Filename K:\New Rips\Shirley Scott - Legends Of Acid Jazz (1961) [FLAC]\07 - Hip Twist.wav

Pre-gap length 0:00:02.02

Peak level 97.7 %
Track quality 100.0 %
Test CRC A8E6FF4F
Copy CRC A8E6FF4F
Track not present in AccurateRip database
Copy OK

Track 8

Filename K:\New Rips\Shirley Scott - Legends Of Acid Jazz (1961) [FLAC]\08 - At Last.wav

Pre-gap length 0:00:03.56

Peak level 82.2 %
Track quality 100.0 %
Test CRC 739FD7A4
Copy CRC 739FD7A4
Track not present in AccurateRip database
Copy OK

Track 9

Filename K:\New Rips\Shirley Scott - Legends Of Acid Jazz (1961) [FLAC]\09 - Rippin' An' Runnin'.wav

Pre-gap length 0:00:04.06

Peak level 92.2 %
Track quality 100.0 %
Test CRC 47AF1DFB
Copy CRC 47AF1DFB
Track not present in AccurateRip database
Copy OK

Track 10

Filename K:\New Rips\Shirley Scott - Legends Of Acid Jazz (1961) [FLAC]\10 - The Very Thought Of You.wav

Pre-gap length 0:00:04.30

Peak level 99.9 %
Track quality 100.0 %
Test CRC DAFFF2A6
Copy CRC DAFFF2A6
Track not present in AccurateRip database
Copy OK

Track 11

Filename K:\New Rips\Shirley Scott - Legends Of Acid Jazz (1961) [FLAC]\11 - Violent Blues.wav

Pre-gap length 0:00:03.90

Peak level 100.0 %
Track quality 100.0 %
Test CRC 37E3067D
Copy CRC 37E3067D
Track not present in AccurateRip database
Copy OK

Track 12

Filename K:\New Rips\Shirley Scott - Legends Of Acid Jazz (1961) [FLAC]\12 - That's All.wav

Pre-gap length 0:00:03.89

Peak level 87.1 %
Track quality 100.0 %
Test CRC 86B108DC
Copy CRC 86B108DC
Track not present in AccurateRip database
Copy OK

Track 13

Filename K:\New Rips\Shirley Scott - Legends Of Acid Jazz (1961) [FLAC]\13 - All Tore Down.wav

Pre-gap length 0:00:03.41

Peak level 89.1 %
Track quality 100.0 %
Test CRC 4A11C847
Copy CRC 4A11C847
Track not present in AccurateRip database
Copy OK


None of the tracks are present in the AccurateRip database

No errors occurred

End of status report

[CUETools log; Date: 24.04.2020 19:15:58; Version: 2.1.4]
[CTDB TOCID: 1Fztcvi8g9paDZUP7FchX6ipFsU-] found.
Track | CTDB Status
1 | (5/5) Accurately ripped
2 | (5/5) Accurately ripped
3 | (5/5) Accurately ripped
4 | (5/5) Accurately ripped
5 | (5/5) Accurately ripped
6 | (5/5) Accurately ripped
7 | (5/5) Accurately ripped
8 | (5/5) Accurately ripped
9 | (5/5) Accurately ripped
10 | (5/5) Accurately ripped
11 | (5/5) Accurately ripped
12 | (5/5) Accurately ripped
13 | (5/5) Accurately ripped
[AccurateRip ID: 00265695-017d4344-be12430d] found.
Track [ CRC | V2 ] Status
01 [6767ced0|5130f6dc] (0+3/5) Accurately ripped
02 [42976ce4|a98c2171] (0+3/5) Accurately ripped
03 [db10e478|4d58cba2] (0+3/5) Accurately ripped
04 [3ad24877|fd2dac10] (0+3/5) Accurately ripped
05 [e750a45b|6154c78c] (0+3/5) Accurately ripped
06 [cc23c0c9|d4d2bc8b] (0+3/5) Accurately ripped
07 [ca9f2b50|d1e43e16] (0+3/5) Accurately ripped
08 [2b8bef81|b06a837a] (0+3/5) Accurately ripped
09 [ffb30ac1|22810c55] (0+3/3) Accurately ripped
10 [ef3d69ed|25ed0dd4] (0+3/5) Accurately ripped
11 [14cdeb2e|911586b7] (0+3/5) Accurately ripped
12 [b9765608|8c55886a] (0+3/5) Accurately ripped
13 [a42d72a0|6d064f98] (0+3/5) Accurately ripped
Offsetted by -659:
01 [2f932ef1] (0/5) No match (V2 was not tested)
02 [818d1a58] (0/5) No match (V2 was not tested)
03 [33fb5ea2] (0/5) No match (V2 was not tested)
04 [4007d3fb] (0/5) No match (V2 was not tested)
05 [cad89a26] (0/5) No match (V2 was not tested)
06 [700b8633] (0/5) No match (V2 was not tested)
07 [38e4d217] (0/5) No match (V2 was not tested)
08 [f02f6586] (0/5) No match (V2 was not tested)
09 [2a1873c3] (0/3) No match (V2 was not tested)
10 [13024c52] (0/5) No match (V2 was not tested)
11 [69671c4f] (0/5) No match (V2 was not tested)
12 [bbaf5796] (0/5) No match (V2 was not tested)
13 [09b9dccc] (0/5) No match (V2 was not tested)

Track Peak [ CRC32 ] [W/O NULL] [ LOG ]
– 100,0 [0785D87A] [8E089564]
01 96,5 [80CC98B1] [31214D76] CRC32
02 99,9 [642B31C1] [C79A4C35] CRC32
03 94,3 [2F05BADF] [304AAAD6] CRC32
04 96,8 [0CF11D41] [7601DBD3] CRC32
05 97,7 [81D7D655] [F875B223] CRC32
06 95,5 [F2BD2FB6] [82C4620F] CRC32
07 97,7 [A8E6FF4F] [669B4372] CRC32
08 82,2 [739FD7A4] [F4DE7651] CRC32
09 92,2 [47AF1DFB] [630A155B] CRC32
10 99,9 [DAFFF2A6] [05DE614F] CRC32
11 100,0 [37E3067D] [DFB67449] CRC32
12 87,1 [86B108DC] [66F14DF1] CRC32
13 89,1 [4A11C847] [F183E801] CRC32

Thanks to yowlz

See also:
Shirley Scott - Soul Searching (1959) [Japanese Edition 1992]
Shirley Scott with Stanley Tur...Shoutin' (1963) [Reissue 1994]