Subcategories
Tags
Language
Tags

Showaddywaddy - Non Stop Rock 'N' Roll Megamix (1991)

Posted By: popsakov
Showaddywaddy - Non Stop Rock 'N' Roll Megamix (1991)

Showaddywaddy - Non Stop Rock 'N' Roll Megamix (1991)
EAC Rip | FLAC (Img) + Cue + Log ~ 408 Mb | MP3 CBR320 ~ 140 Mb
Full Scans | 00:56:56 | RAR 5% Recovery
Pop, Rock & Roll, Doo Wop, Pop Rock, Glam Rock | Tring International PLC #GRF187

One of the finest rock & roll revival bands of the 1970s, Showaddywaddy also proved to be one of the most successful and enduring. Originally styled as a British answer to American retro-masters Sha Na Na, Showaddywaddy found themselves scooped up into the glam rock basket; indeed, at a time when rival giants Mud, Wizzard, and the Rubettes were also mining the '50s for inspiration, Showaddywaddy swept ahead with barely a glance over their shoulder. The group's run of greatest hits sounds devastatingly pure, even authentic, while further evidence of their resilience can be garnered from the fact that Showaddywaddy are regularly gigging, a full 50 years after the bandmembers first heard the music which brought them such fame.

This release is a superb megamix of singles, album tracks spanning the bands career from 1973-1982. This CD was also available on cassette but it was not released on vinyl. A must have for any Rock & Roll music or Showaddywaddy fans! Some of these 'short' tracks can also be found on the rare Greatest Hits II CD compilation.

***************

Showaddywaddy - Non Stop Rock 'N' Roll Megamix (1991)

Showaddywaddy - Non Stop Rock 'N' Roll Megamix (1991)

Track List:

01. Showaddywaddy (Intro) [01:11]
02. Twist & Shout [01:10]
03. Alley oop [01:23]
04. Three step to heaven [01:07]
05. Blue moon [01:25]
06. That's Rock n Roll [02:03]
07. You got what it takes [02:00]
08. I dont like Rock n Roll no more [01:01]
09. Sweet little Rock n Roller [02:25]
10. Showaddywaddy [00:14]
11. A little bit of soap [01:23]
12. Showaddywaddy [00:20]
13. Heartbeat [00:49]
14. Little Ole wine drinker me [02:04]
15. Heavenly [00:43]
16. Just a country boy [01:34]
17. Chain gang [01:22]
18. Trocadero [01:28]
19. Go Johnny go [01:43]
20. That's alright with me [01:53]
21. Personality [01:40]
22. Showaddywaddy [00:15]
23. Under the moon of love [01:16]
24. Showaddywaddy [00:13]
25. Temptation [01:06]
26. Showaddywaddy [00:13]
27. Sea cruise [01:36]
28. Somethin' else [01:11]
29. Hay Rock 'n' Roll [01:47]
30. Showaddywaddy [00:12]
31. Comeon let's go [01:30]
32. Dancin' Party [01:38]
33. When [02:10]
34. Showaddywaddy [00:37]
35. Say mama [02:16]
36. Why do lovers break each other's hearts [02:19]
37. King of the jive [01:37]
38. I wonder why [02:01]
39. Win your heart [01:15]
40. Remember then [01:56]
41. Listen to me [01:00]
42. Pretty little angel eyes [01:49]
43. Showaddywaddy (Extro) [00:21]

Exact Audio Copy V1.0 beta 4 from 7. December 2014

Отчёт EAC об извлечении, выполненном 9. июля 2015, 15:46

Showaddywaddy / Non stop Rock 'n' roll [MEGAMIX]

Дисковод: ASUS DRW-24F1ST a Adapter: 1 ID: 0

Режим чтения : Достоверность
Использование точного потока : Да
Отключение кэша аудио : Да
Использование указателей C2 : Нет

Коррекция смещения при чтении : 6
Способность читать области Lead-in и Lead-out : Нет
Заполнение пропущенных сэмплов тишиной : Да
Удаление блоков с тишиной в начале и конце : Нет
При вычислениях CRC использовались нулевые сэмплы : Да
Интерфейс : Встроенный Win32-интерфейс для Win NT/2000

Выходной формат : Пользовательский кодировщик
Выбранный битрейт : 128 kBit/s
Качество : Высокий
Добавление ID3-тега : Нет
Утилита сжатия : C:\Program Files\Exact Audio Copy\Flac\flac.exe
Дополнительные параметры : -V -8 -T "Date=%year%" -T "Genre=%genre%" %source%


TOC извлечённого CD

Трек | Старт | Длительность | Начальный сектор | Конечный сектор
––––––––––––––––––––––––––––––––––-
1 | 0:00.32 | 1:10.33 | 32 | 5314
2 | 1:10.65 | 1:09.20 | 5315 | 10509
3 | 2:20.10 | 1:22.12 | 10510 | 16671
4 | 3:42.22 | 1:06.35 | 16672 | 21656
5 | 4:48.57 | 1:24.23 | 21657 | 27979
6 | 6:13.05 | 2:02.70 | 27980 | 37199
7 | 8:16.00 | 1:59.52 | 37200 | 46176
8 | 10:15.52 | 1:01.00 | 46177 | 50751
9 | 11:16.52 | 2:24.45 | 50752 | 61596
10 | 13:41.22 | 0:13.08 | 61597 | 62579
11 | 13:54.30 | 1:22.52 | 62580 | 68781
12 | 15:17.07 | 0:19.40 | 68782 | 70246
13 | 15:36.47 | 0:48.43 | 70247 | 73889
14 | 16:25.15 | 2:03.57 | 73890 | 83171
15 | 18:28.72 | 0:42.28 | 83172 | 86349
16 | 19:11.25 | 1:33.12 | 86350 | 93336
17 | 20:44.37 | 1:21.63 | 93337 | 99474
18 | 22:06.25 | 1:27.07 | 99475 | 106006
19 | 23:33.32 | 1:42.30 | 106007 | 113686
20 | 25:15.62 | 1:52.13 | 113687 | 122099
21 | 27:08.00 | 1:39.72 | 122100 | 129596
22 | 28:47.72 | 0:14.40 | 129597 | 130686
23 | 29:02.37 | 1:15.55 | 130687 | 136366
24 | 30:18.17 | 0:12.63 | 136367 | 137329
25 | 30:31.05 | 1:05.10 | 137330 | 142214
26 | 31:36.15 | 0:12.02 | 142215 | 143116
27 | 31:48.17 | 1:35.03 | 143117 | 150244
28 | 33:23.20 | 1:10.47 | 150245 | 155541
29 | 34:33.67 | 1:46.60 | 155542 | 163551
30 | 36:20.52 | 0:11.65 | 163552 | 164441
31 | 36:32.42 | 1:29.45 | 164442 | 171161
32 | 38:02.12 | 1:37.40 | 171162 | 178476
33 | 39:39.52 | 2:09.13 | 178477 | 188164
34 | 41:48.65 | 0:36.65 | 188165 | 190929
35 | 42:25.55 | 2:15.55 | 190930 | 201109
36 | 44:41.35 | 2:18.50 | 201110 | 211509
37 | 47:00.10 | 1:36.70 | 211510 | 218779
38 | 48:37.05 | 2:00.15 | 218780 | 227794
39 | 50:37.20 | 1:14.57 | 227795 | 233401
40 | 51:52.02 | 1:55.38 | 233402 | 242064
41 | 53:47.40 | 0:59.25 | 242065 | 246514
42 | 54:46.65 | 1:48.50 | 246515 | 254664
43 | 56:35.40 | 0:20.27 | 254665 | 256191


Характеристики диапазона извлечения и сообщения об ошибках

Выбранный диапазон

Имя файла C:\Users\Erik\Desktop\Showaddywaddy - Non stop Rock 'n' roll [MEGAMIX].wav

Пиковый уровень 91.3 %
Скорость извлечения 2.3 X
Качество диапазона 100.0 %
CRC теста DCD5CFAB
CRC копии DCD5CFAB
Копирование… OK

Ошибок не произошло


AccurateRip: сводка

Трек 1 : извлечено точно (доверие 1) [E0105EAB] (AR v1)
Трек 2 : извлечено точно (доверие 1) [E9CE3EB3] (AR v1)
Трек 3 : извлечено точно (доверие 1) [D2D1D91C] (AR v1)
Трек 4 : извлечено точно (доверие 1) [E292A7C4] (AR v1)
Трек 5 : извлечено точно (доверие 1) [223E51F4] (AR v1)
Трек 6 : извлечено точно (доверие 1) [E7264338] (AR v1)
Трек 7 : извлечено точно (доверие 1) [D452681A] (AR v1)
Трек 8 : извлечено точно (доверие 1) [6D7B6190] (AR v1)
Трек 9 : извлечено точно (доверие 1) [A1C0A181] (AR v1)
Трек 10 : извлечено точно (доверие 1) [49C554D6] (AR v1)
Трек 11 : извлечено точно (доверие 1) [61505DB0] (AR v1)
Трек 12 : извлечено точно (доверие 1) [5C26EE38] (AR v1)
Трек 13 : извлечено точно (доверие 1) [C4DD764F] (AR v1)
Трек 14 : извлечено точно (доверие 1) [1F2CD33B] (AR v1)
Трек 15 : извлечено точно (доверие 1) [F90CE259] (AR v1)
Трек 16 : извлечено точно (доверие 1) [29CFE81C] (AR v1)
Трек 17 : извлечено точно (доверие 1) [9AFD0415] (AR v1)
Трек 18 : извлечено точно (доверие 1) [231775CE] (AR v1)
Трек 19 : извлечено точно (доверие 1) [95D689D7] (AR v1)
Трек 20 : извлечено точно (доверие 1) [63FB6F97] (AR v1)
Трек 21 : извлечено точно (доверие 1) [0C86037D] (AR v1)
Трек 22 : извлечено точно (доверие 1) [0F8A1B47] (AR v1)
Трек 23 : извлечено точно (доверие 1) [4BF50210] (AR v1)
Трек 24 : извлечено точно (доверие 1) [C24C37F8] (AR v1)
Трек 25 : извлечено точно (доверие 1) [975F4568] (AR v1)
Трек 26 : извлечено точно (доверие 1) [622F0C14] (AR v1)
Трек 27 : извлечено точно (доверие 1) [7E2C2229] (AR v1)
Трек 28 : извлечено точно (доверие 1) [BC6DC5B2] (AR v1)
Трек 29 : извлечено точно (доверие 1) [15F667F9] (AR v1)
Трек 30 : извлечено точно (доверие 1) [AC5ABF07] (AR v1)
Трек 31 : извлечено точно (доверие 1) [AED280FC] (AR v1)
Трек 32 : извлечено точно (доверие 1) [2BCD3113] (AR v1)
Трек 33 : извлечено точно (доверие 1) [FEE38783] (AR v1)
Трек 34 : извлечено точно (доверие 1) [B6D022F7] (AR v1)
Трек 35 : извлечено точно (доверие 1) [B2610664] (AR v1)
Трек 36 : извлечено точно (доверие 1) [AE362EB5] (AR v1)
Трек 37 : извлечено точно (доверие 1) [E9402646] (AR v1)
Трек 38 : извлечено точно (доверие 1) [084CCD25] (AR v1)
Трек 39 : извлечено точно (доверие 1) [431EC954] (AR v1)
Трек 40 : извлечено точно (доверие 1) [D426E4D7] (AR v1)
Трек 41 : извлечено точно (доверие 1) [764D5653] (AR v1)
Трек 42 : извлечено точно (доверие 1) [4C5B96D6] (AR v1)
Трек 43 : извлечено точно (доверие 1) [84063CA2] (AR v1)

Все треки извлечены точно

Конец отчёта

–– CUETools DB Plugin V2.1.4

[CTDB TOCID: kSUbqRpjNOGG18D7nct2gYYbnuM-] found
Submit result: kSUbqRpjNOGG18D7nct2gYYbnuM- has been uploaded
Track | CTDB Status
1 | (1/1) Accurately ripped
2 | (1/1) Accurately ripped
3 | (1/1) Accurately ripped
4 | (1/1) Accurately ripped
5 | (1/1) Accurately ripped
6 | (1/1) Accurately ripped
7 | (1/1) Accurately ripped
8 | (1/1) Accurately ripped
9 | (1/1) Accurately ripped
10 | (1/1) Accurately ripped
11 | (1/1) Accurately ripped
12 | (1/1) Accurately ripped
13 | (1/1) Accurately ripped
14 | (1/1) Accurately ripped
15 | (1/1) Accurately ripped
16 | (1/1) Accurately ripped
17 | (1/1) Accurately ripped
18 | (1/1) Accurately ripped
19 | (1/1) Accurately ripped
20 | (1/1) Accurately ripped
21 | (1/1) Accurately ripped
22 | (1/1) Accurately ripped
23 | (1/1) Accurately ripped
24 | (1/1) Accurately ripped
25 | (1/1) Accurately ripped
26 | (1/1) Accurately ripped
27 | (1/1) Accurately ripped
28 | (1/1) Accurately ripped
29 | (1/1) Accurately ripped
30 | (1/1) Accurately ripped
31 | (1/1) Accurately ripped
32 | (1/1) Accurately ripped
33 | (1/1) Accurately ripped
34 | (1/1) Accurately ripped
35 | (1/1) Accurately ripped
36 | (1/1) Accurately ripped
37 | (1/1) Accurately ripped
38 | (1/1) Accurately ripped
39 | (1/1) Accurately ripped
40 | (1/1) Accurately ripped
41 | (1/1) Accurately ripped
42 | (1/1) Accurately ripped
43 | (1/1) Accurately ripped


==== Контрольная сумма отчёта 0A881E4F61C8D16820061D11EA7E44C89B423B6315CA7CF8BA7A28904E542AF7 ====

Showaddywaddy - Non Stop Rock 'N' Roll Megamix (1991)


All thanks go to Erik

>>> My Blog <<<

DOWNLOAD: