Subcategories

Sigiswald Kuijken, La Petite Bande, Ex Tempore - Carl Heinrich Graun: Der Tod Jesu (2004)

Posted By: ArlegZ
Sigiswald Kuijken, La Petite Bande, Ex Tempore - Carl Heinrich Graun: Der Tod Jesu (2004)

Sigiswald Kuijken, La Petite Bande, Ex Tempore - Carl Heinrich Graun: Der Tod Jesu (2004)
EAC | FLAC | Image (Cue & Log) ~ 465 Mb | Total time: 45:09+56:08 | Scans included
Classical | Label: Hyperion | # CDA67466 | Recorded: 2003

'When all is said and done, Kuijken and Hyperion have given us perhaps the most fully satisfying recording yet of the work—one not likely to be challenged for some time'
(American Record Guide)

'Sigiswald Kuijken directs a flowing, sympathetic performance, characterised by moderate tempi, detailed yet gentle articulation, and a restrained—yet never static—approach to dynamics … the performance successfully communicates the music's charm, lyricism and genteel expression'
(Goldberg)

Performer:
Uta Schwabe, soprano
Inge Van de Kerkhove, soprano
Christoph Genz, tenor
Stephan Genz, bass
Ex Tempore
La Petite Bande
Conductor - Sigiswald Kuijken

Track List:
CD1:
01. Choral: Du, dessen Augen flossen
02. Tutti: Sein Odem ist schwach
03. Recitative: Gethsemane! Gethsemane!
04. Aria: Du Held, auf den die Köcher
05. Choral: Wen hab' ich sonst als dich allein
06. Recitative: Ach mein Immanuel!
07. Aria: Ein Gebeth um neue Stärke
08. Recitative: Nun klingen Waffen
09. Aria: Ihr weichgeschaffnen Seelen
10. Tutti: Unsre Seele ist gebeuget zu der Erden
11. Choral: Ich will von meiner Missethat
CD2:
01. Recitative: Jerusalem voll Mordlust ruft
02. Aria: So stehet ein Berg Gottes
03. Tutti: Christus hat uns ein Vorbild gelassen
04. Choral: Ihr werde Dir zu Ehren alles wagen
05. Recitative: Da steht der traurige, verhängnisvolle Pfahl
06. Duetto: Feinde, die ihr mich betrübt
07. Recitative: Wer ist der Heilige
08. Aria: Singt dem göttlichen Propheten
09. Tutti: Freuet euch alle Ihr Frommen
10. Choral: Wie herrlich ist die neue Welt
11. Recitative: Auf einmal fällt der aufgehaltne Schmerz
12. Accompagnement: Es steigen Seraphim von allen Sternen nieder
13. Choral: Ihr Augen, weint!
14. Chor: Hier liegen wir


Exact Audio Copy V1.3 from 2. September 2016

EAC extraction logfile from 18. November 2017, 21:25

Sigiswald Kuijken, La Petite Bande, Ex Tempore / Graun - Der Tod Jesu CD1

Used drive : HL-DT-STDVDRAM GH24NS95 Adapter: 1 ID: 0

Read mode : Secure
Utilize accurate stream : Yes
Defeat audio cache : Yes
Make use of C2 pointers : No

Read offset correction : 6
Overread into Lead-In and Lead-Out : No
Fill up missing offset samples with silence : Yes
Delete leading and trailing silent blocks : No
Null samples used in CRC calculations : Yes
Used interface : Native Win32 interface for Win NT & 2000

Used output format : User Defined Encoder
Selected bitrate : 128 kBit/s
Quality : High
Add ID3 tag : No
Command line compressor : C:\Program Files\Exact Audio Copy\Flac\flac.exe
Additional command line options : -V -8 -T "Date=%year%" -T "Genre=%genre%" %source%


TOC of the extracted CD

Track | Start | Length | Start sector | End sector
––––––––––––––––––––––––––––-
1 | 0:00.00 | 1:25.67 | 0 | 6441
2 | 1:25.67 | 3:49.06 | 6442 | 23622
3 | 5:14.73 | 2:46.00 | 23623 | 36072
4 | 8:00.73 | 7:59.32 | 36073 | 72029
5 | 16:00.30 | 1:26.70 | 72030 | 78549
6 | 17:27.25 | 2:27.02 | 78550 | 89576
7 | 19:54.27 | 8:24.62 | 89577 | 127438
8 | 28:19.14 | 2:29.64 | 127439 | 138677
9 | 30:49.03 | 9:25.10 | 138678 | 181062
10 | 40:14.13 | 4:00.67 | 181063 | 199129
11 | 44:15.05 | 1:12.23 | 199130 | 204552


Range status and errors

Selected range

Filename C:\Program Files\Exact Audio Copy\Flac\Graun - Der Tod Jesu CD1.wav

Peak level 93.3 %
Extraction speed 6.8 X
Range quality 99.9 %
Test CRC 06ECECE0
Copy CRC 06ECECE0
Copy OK

No errors occurred

End of status report

==== Log checksum 4E663074E1EB47EDA4E9DBA924E3D07BFFB63D99ED1AF1A9B68A9F561C497E80 ====


Exact Audio Copy V1.3 from 2. September 2016

EAC extraction logfile from 18. November 2017, 21:56

Sigiswald Kuijken, La Petite Bande, Ex Tempore / Graun - Der Tod Jesu CD2

Used drive : HL-DT-STDVDRAM GH24NS95 Adapter: 1 ID: 0

Read mode : Secure
Utilize accurate stream : Yes
Defeat audio cache : Yes
Make use of C2 pointers : No

Read offset correction : 6
Overread into Lead-In and Lead-Out : No
Fill up missing offset samples with silence : Yes
Delete leading and trailing silent blocks : No
Null samples used in CRC calculations : Yes
Used interface : Native Win32 interface for Win NT & 2000

Used output format : User Defined Encoder
Selected bitrate : 128 kBit/s
Quality : High
Add ID3 tag : No
Command line compressor : C:\Program Files\Exact Audio Copy\Flac\flac.exe
Additional command line options : -V -8 -T "Date=%year%" -T "Genre=%genre%" %source%


TOC of the extracted CD

Track | Start | Length | Start sector | End sector
––––––––––––––––––––––––––––-
1 | 0:00.00 | 3:50.74 | 0 | 17323
2 | 3:50.74 | 6:54.65 | 17324 | 48438
3 | 10:45.64 | 3:08.57 | 48439 | 62595
4 | 13:54.46 | 0:54.42 | 62596 | 66687
5 | 14:49.13 | 2:37.12 | 66688 | 78474
6 | 17:26.25 | 9:08.59 | 78475 | 119633
7 | 26:35.09 | 2:12.57 | 119634 | 129590
8 | 28:47.66 | 6:19.25 | 129591 | 158040
9 | 35:07.16 | 2:44.52 | 158041 | 170392
10 | 37:51.68 | 1:34.52 | 170393 | 177494
11 | 39:26.45 | 2:27.14 | 177495 | 188533
12 | 41:53.59 | 2:58.07 | 188534 | 201890
13 | 44:51.66 | 4:46.67 | 201891 | 223407
14 | 49:38.58 | 6:53.49 | 223408 | 254431


Range status and errors

Selected range

Filename C:\Program Files\Exact Audio Copy\Flac\Graun - Der Tod Jesu CD2.wav

Peak level 100.0 %
Extraction speed 7.4 X
Range quality 100.0 %
Test CRC C0CE384D
Copy CRC C0CE384D
Copy OK

No errors occurred

End of status report

==== Log checksum E7B79A959283979BCB7605C7A0BF8B48D48667E8A4C4AC5474AA9BD885385827 ====

Sigiswald Kuijken, La Petite Bande, Ex Tempore - Carl Heinrich Graun: Der Tod Jesu (2004)