Subcategories
Tags
Language
Tags

Silent Circle - My Star: Silent Circle (2020)

Posted By: BlondStyle
Silent Circle - My Star: Silent Circle (2020)

Silent Circle - My Star: Silent Circle (2020)
Electronic, Pop, Euro-Disco | EAC Rip | FLAC, Img+CUE+LOG+Scans (JPEG) | 01:19:40 | 627,25 Mb
Label: DA Records (Germany) | Cat.# CD 877579-2 | Released: 2020-03-27

The trio Silent Circle is one of the cult stars of the 80s with numerous pop hits and countless live shows. This MY STAR Silent Circle's songs collection finally completes four previously unreleased tracks - "How Could I Be Right", "Kadio", "2 Night (Version 1989)" and a new "Touch In The Night 3000" recording. The trio, from whose original cast only Martin Tychsen remains is touring today and celebrating its 35th anniversary this year. So this MY STAR edition, which is of course also available on vinyl for this festive occasion, is just right.
~Review by Amazon

Silent Circle - My Star: Silent Circle (2020)

Silent Circle - My Star: Silent Circle (2020)


Release of this album/CD: 2020, March, 27 [CD DA Records (Germany), Cat.# CD 877579-2 / UPC: 4002587757922]
A release of DA Music, a member of PALLAS Group.
This compilation ℗© 2020 DA Music / Deutsche Austrophon GmbH & Co. KG.
Manufactured in the E.U.

Notes: Compilation, Limited Edition, Remastered. A part of 'My Star 2.0' Series.

Credits:

Artwork – DA Music, Markus Bulinski
Photography By – Bernd Dietrich


Tracklist:

01. Touch In The Night (05:18)
02. Stop The Rain In The Night (03:40)
03. Love Is Just A Word (03:25)
04. Time For Love (Super Action Mix) (05:25)
05. Moonlight Affair (03:29)
06. Danger Danger (Racing Mix) (06:01)
07. Oh, Don't Lose Your Heart Tonight (Radio Version) (03:30)
08. Anywhere Tonight (03:19)
09. Dreams (04:00)
10. Give Me Time (03:54)
11vHide Away - Man Is Comin (03:42)
12. Shy Girl (03:34)
13. I Am Your Believer (03:30)
14. Forget The Stranger (03:18)
15. What A Shame (Masterbeat Mix) (06:35)
16. 2 Night (Version 1989) (Unreleased Track) (03:28)
17. Every Move Every Touch (Radio Edit) (03:33)
18. How Could I Be Right (Unreleased Track) (03:29)
19. Kaido (Unreleased Track) (03:20)
20. Touch In The Night 3000 (Unreleased Album Edit) (03:49)

Exact Audio Copy V1.3 from 2. September 2016

EAC extraction logfile from 16. July 2020, 18:16

Silent Circle / My Star

Used drive : ATAPI iHAS122 C Adapter: 1 ID: 0

Read mode : Secure
Utilize accurate stream : Yes
Defeat audio cache : Yes
Make use of C2 pointers : No

Read offset correction : 6
Overread into Lead-In and Lead-Out : No
Fill up missing offset samples with silence : Yes
Delete leading and trailing silent blocks : No
Null samples used in CRC calculations : Yes
Used interface : Native Win32 interface for Win NT & 2000

Used output format : Internal WAV Routines
Sample format : 44.100 Hz; 16 Bit; Stereo


TOC of the extracted CD

Track | Start | Length | Start sector | End sector
––––––––––––––––––––––––––––-
1 | 0:00.00 | 5:17.53 | 0 | 23827
2 | 5:17.53 | 3:33.61 | 23828 | 39863
3 | 8:51.39 | 3:18.35 | 39864 | 54748
4 | 12:09.74 | 5:20.36 | 54749 | 78784
5 | 17:30.35 | 3:25.32 | 78785 | 94191
6 | 20:55.67 | 5:59.56 | 94192 | 121172
7 | 26:55.48 | 3:30.35 | 121173 | 136957
8 | 30:26.08 | 3:19.60 | 136958 | 151942
9 | 33:45.68 | 3:56.64 | 151943 | 169706
10 | 37:42.57 | 3:52.00 | 169707 | 187106
11 | 41:34.57 | 3:41.52 | 187107 | 203733
12 | 45:16.34 | 3:32.59 | 203734 | 219692
13 | 48:49.18 | 3:32.26 | 219693 | 235618
14 | 52:21.44 | 3:20.23 | 235619 | 250641
15 | 55:41.67 | 6:35.49 | 250642 | 280315
16 | 62:17.41 | 3:21.54 | 280316 | 295444
17 | 65:39.20 | 3:35.16 | 295445 | 311585
18 | 69:14.36 | 3:24.47 | 311586 | 326932
19 | 72:39.08 | 3:12.71 | 326933 | 341403
20 | 75:52.04 | 3:48.48 | 341404 | 358551


Range status and errors

Selected range

Filename C:\Users\44740\Desktop\Silent Circle - My Star.wav

Peak level 98.8 %
Extraction speed 9.8 X
Range quality 100.0 %
Test CRC 4ADEB4A5
Copy CRC 4ADEB4A5
Copy OK

No errors occurred


AccurateRip summary

Track 1 not present in database
Track 2 not present in database
Track 3 not present in database
Track 4 not present in database
Track 5 not present in database
Track 6 not present in database
Track 7 not present in database
Track 8 not present in database
Track 9 not present in database
Track 10 not present in database
Track 11 not present in database
Track 12 not present in database
Track 13 not present in database
Track 14 not present in database
Track 15 not present in database
Track 16 not present in database
Track 17 not present in database
Track 18 not present in database
Track 19 not present in database
Track 20 not present in database

None of the tracks are present in the AccurateRip database

End of status report

–– CUETools DB Plugin V2.1.6

[CTDB TOCID: qKTyOk9DryOLVzwDn1e52pKWwII-] disk not present in database
Submit result: qKTyOk9DryOLVzwDn1e52pKWwII- has been uploaded


==== Log checksum E052EA5A85A93D10BC8761011F19BEB34FF206EEA8D6E8DB6B9502CB3ABE766A ====

––––––––––––––––––––––––––––––––––––––––
Analyzed: Silent Circle / My Star
––––––––––––––––––––––––––––––––––––––––

DR Peak RMS Duration Track
––––––––––––––––––––––––––––––––––––––––
DR6 -0.31 dB -8.29 dB 5:18 01-TOUCH IN THE NIGHT
DR8 -0.11 dB -8.97 dB 3:34 02-STOP THE RAIN IN THE NIGHT
DR6 -0.71 dB -8.67 dB 3:18 03-LOVE IST JUST A WORD
DR7 -0.38 dB -9.50 dB 5:20 04-TIME FOR LOVE (SUPER ACTION MIX)
DR7 -0.31 dB -8.39 dB 3:25 05-MOONLIGHT AFFAIR
DR6 -0.51 dB -8.09 dB 6:00 06-DANGER DANGER (RACING MIX)
DR6 -0.58 dB -8.33 dB 3:30 07-OH,DON'T LOSE YOUR HEART TONIGHT (RADIO VERSION)
DR7 -0.48 dB -9.09 dB 3:20 08-ANYWHERE TONIGHT
DR6 -0.31 dB -7.93 dB 3:57 09-DREAMS
DR7 -0.31 dB -8.49 dB 3:52 10-GIVE ME TIME
DR6 -0.31 dB -7.92 dB 3:42 11-HIDE AWAY - MAN IS COMIN'!
DR7 -0.71 dB -9.48 dB 3:33 12-SHY GIRL
DR8 -0.10 dB -8.75 dB 3:32 13-I AM YOUR BELIEVER
DR7 -0.10 dB -8.53 dB 3:20 14-FORGET THE STRANGER
DR7 -0.15 dB -8.82 dB 6:36 15-WHAT A SHAME
DR7 -0.38 dB -8.95 dB 3:22 16-2NIGHT (VERSION 1989) (UNRELEASED BONUS TRACK)
DR7 -0.31 dB -8.58 dB 3:35 17-EVERY MOVE EVERY TOUCH (RADIO EDIT)
DR8 -0.10 dB -9.02 dB 3:25 18-HOW COULD I BE RIGHT (UNRELEASED TRACK)
DR8 -0.10 dB -9.42 dB 3:13 19-KAIDO (UNRELEASED TRACK)
DR7 -0.98 dB -8.61 dB 3:49 20-TOUCH IN THE NIGHT 3000 (UNRELEASED ALBUM EDIT)
––––––––––––––––––––––––––––––––––––––––

Number of tracks: 20
Official DR value: DR7

Samplerate: 44100 Hz
Channels: 2
Bits per sample: 16
Bitrate: 994 kbps
Codec: FLAC
================================================================================

Thanks to my friend, London

♫~Welcome To My Blog~♫

password: BlondStyle