Tags
Language
Tags

Simon & Garfunkel - Sounds Of Silence (1966)

Posted By: v3122
Simon & Garfunkel - Sounds Of Silence (1966)

Simon & Garfunkel - Sounds Of Silence (1966)
EAC | Flac(Image) + Cue + Log & MP3 CBR 320Kbps
2007 | Columbia-Legacy, 88697134662-2 | ~ 235 or 101 Mb | Scans(jpg) -> 24 Mb
Folk-Rock | Remastered

Simon & Garfunkel's second album, Sounds of Silence, was recorded 18 months after their debut long-player, Wednesday Morning, 3 AM – but even though the two albums shared one song (actually, one-and-a-half songs) in common, the sound here seemed a million miles away from the gentle harmonizing and unassuming acoustic accompaniment on the first record. In between, there had been a minor earthquake in the pop/rock world called "folk-rock," which resulted in the transformation of their acoustic rendition of "The Sound of Silence" into a classic of the new genre, complete with jangling electric guitars and an amplified beat that helped carry it to the top of the charts. The duo hastily re-formed, Paul Simon returning from an extended stay in England with a large song bag (part of which he had already committed to vinyl, on his U.K. album The Paul Simon Songbook). Simon & Garfunkel rushed into the studio in the fall of 1965 to come up with a folk-rock album in a hurry: fortunately, they'd already recorded two sides, "Somewhere They Can't Find Me" (actually, Simon's rewrite of their first album‘s title track) and "We've Got a Groovey Thing Goin'," both featuring a band accompaniment. Davy Graham's bluesy "Anji," a rare instrumental outing by Simon, filled another slot, and "Richard Cory" filled another. The latter, Simon's adaptation of poet Edwin Arlington Robinson‘s work, was a sincere effort at relevance – Richard Cory has every material thing a man could want but still takes his own life, a hint at one aspect of middle-class teenaged angst of the mid-'60s; high school English teachers were still using it to motivate students in the '70s. Though a rushed effort, this was a far stronger album than their debut, mostly thanks to Simon's compositions; indeed, in one fell swoop, the world learned not only of the existence of a superb song-poet in Paul Simon, but, in Simon's harmonizing with Art Garfunkel, the finest singing duo since the Everly Brothers. But it also had flaws, some of which only became fully apparent as their audience matured: the snide, youthful sensibilities of "I Am a Rock" and "Blessed" haven't aged well. And the musical concessions, on those tracks and "Richard Cory," to folk-rock amplification have also worn poorly; even in 1966, the electric guitars, piano, organ, and drums, sounded awkward in context with the duo's singing, like something grafted on, though in fairness, those sounds did sell the album. The parts that work best, "Kathy's Song" and "April Come She Will," two of the most personal songs in Simon's output, were similar to the stripped-down originals Simon had cut solo in England, and among the most affecting (as opposed to affected) folk-style records of their era; similarly, Simon's rendition of the folk-blues instrumental "Anji" is close to composer Davy Graham's original, just recorded hotter, while "Leaves That Are Green" is pleasantly if unobtrusively ornamented with electric harpsichord, rhythm guitar, and bass.

by Bruce Eder, allmusic
Simon & Garfunkel - Sounds Of Silence (1966)


Simon & Garfunkel - Sounds Of Silence (1966):

Simon & Garfunkel - Sounds Of Silence (1966)

Tracklist:

01. The Sound Of Silence [0:03:09.25]
02. Leaves That Are Green [0:02:24.47]
03. Blessed [0:03:17.65]
04. Kathy's Song [0:03:21.18]
05. Somewhere They Can't Find Me [0:02:38.25]
06. Anji [0:02:18.37]
07. Richard Cory [0:02:59.20]
08. A Most Peculiar Man [0:02:33.48]
09. April Come She Will [0:01:52.70]
10. We've Got A Groovy Thing Goin' [0:02:00.67]
11. I Am A Rock [0:02:59.20]
12. Blues Run The Game [0:02:55.15]
13. Barbriallen (Demo) [0:04:06.23]
14. Rose Of Aberdeen (Demo) [0:02:02.62]
15. Roving Gambler (Demo) [0:03:03.58]

Exact Audio Copy V1.0 beta 3 from 29. August 2011

EAC extraction logfile from 5. May 2017, 19:05

Simon & Garfunkel / Parsley, Sage, Rosemary and Thyme

Used drive : PLEXTOR DVDR PX-L890SA Adapter: 5 ID: 1

Read mode : Secure
Utilize accurate stream : Yes
Defeat audio cache : Yes
Make use of C2 pointers : No

Read offset correction : 6
Overread into Lead-In and Lead-Out : No
Fill up missing offset samples with silence : Yes
Delete leading and trailing silent blocks : No
Null samples used in CRC calculations : Yes
Used interface : Native Win32 interface for Win NT & 2000

Used output format : User Defined Encoder
Selected bitrate : 768 kBit/s
Quality : High
Add ID3 tag : No
Command line compressor : C:\Program Files (x86)\Exact Audio Copy\Flac\flac.exe
Additional command line options : -V -8 -T "Date=%year%" -T "Genre=%genre%" %source%


TOC of the extracted CD

Track | Start | Length | Start sector | End sector
––––––––––––––––––––––––––––-
1 | 0:00.00 | 3:12.02 | 0 | 14401
2 | 3:12.02 | 2:45.03 | 14402 | 26779
3 | 5:57.05 | 2:15.15 | 26780 | 36919
4 | 8:12.20 | 2:31.60 | 36920 | 48304
5 | 10:44.05 | 2:45.70 | 48305 | 60749
6 | 13:30.00 | 1:47.17 | 60750 | 68791
7 | 15:17.17 | 2:40.63 | 68792 | 80854
8 | 17:58.05 | 2:14.00 | 80855 | 90904
9 | 20:12.05 | 2:15.72 | 90905 | 101101
10 | 22:28.02 | 2:06.20 | 101102 | 110571
11 | 24:34.22 | 1:57.00 | 110572 | 119346
12 | 26:31.22 | 2:01.18 | 119347 | 128439


Range status and errors

Selected range

Filename H:\MUSIC\1966. Simon & Garfunkel - Parsley, Sage, Rosemary And Thyme (CBS-Sony 32DP-283, Japan)\Simon & Garfunkel - Parsley, Sage, Rosemary and Thyme.wav

Peak level 95.8 %
Extraction speed 7.4 X
Range quality 100.0 %
Test CRC 1EE608B0
Copy CRC 1EE608B0
Copy OK

No errors occurred


AccurateRip summary

Track 1 accurately ripped (confidence 14) [252FE94B] (AR v2)
Track 2 accurately ripped (confidence 13) [38D51E41] (AR v2)
Track 3 accurately ripped (confidence 13) [FC59463D] (AR v2)
Track 4 accurately ripped (confidence 14) [EDFC2FB7] (AR v2)
Track 5 accurately ripped (confidence 13) [C3AE58A4] (AR v2)
Track 6 accurately ripped (confidence 13) [797476A1] (AR v2)
Track 7 accurately ripped (confidence 13) [8C53BA8A] (AR v2)
Track 8 accurately ripped (confidence 13) [ABBCCBCB] (AR v2)
Track 9 accurately ripped (confidence 13) [DC570D66] (AR v2)
Track 10 accurately ripped (confidence 14) [3DBD273B] (AR v2)
Track 11 accurately ripped (confidence 14) [A4E29591] (AR v2)
Track 12 accurately ripped (confidence 13) [F7904BFD] (AR v2)

All tracks accurately ripped

End of status report

==== Log checksum 9CD8D2B4C2199253A71439AB992E654ED81B0F6D8D837E76E4BE31C5ECAA0148 ====


[CUETools log; Date: 20.04.2018 11:36:31; Version: 2.1.5]
[AccurateRip ID: 00170161-0102f982-ce09c80f] found.
Track [ CRC | V2 ] Status
01 [edb10afd|117eb42e] (187+200/1226) Accurately ripped
02 [e96c6e61|4f9f1ef1] (185+200/1213) Accurately ripped
03 [52f31319|a68f7522] (184+200/1209) Accurately ripped
04 [fc8d3eb8|c038eb64] (184+200/1210) Accurately ripped
05 [4d0e1222|f61b729e] (186+200/1213) Accurately ripped
06 [7ca86241|ce5c18e9] (184+200/1210) Accurately ripped
07 [8acc9eab|3d8bc761] (185+200/1215) Accurately ripped
08 [b6c569ab|4922758d] (184+200/1209) Accurately ripped
09 [ecdb1604|9ec46555] (185+200/1212) Accurately ripped
10 [37500cd9|a793e07d] (185+200/1212) Accurately ripped
11 [1c5b2638|9a9fae64] (185+200/1217) Accurately ripped
12 [0a3c88aa|ac8ec5f2] (183+200/1205) Accurately ripped
13 [14455b17|f47df9d4] (182+200/1200) Accurately ripped
14 [aa12c1f2|15583cb1] (184+200/1203) Accurately ripped
15 [83b0ff1e|b90487c5] (183+200/1199) Accurately ripped
Offsetted by -389:
01 [8650346f] (016/1226) Accurately ripped
02 [97576fd4] (015/1213) Accurately ripped
03 [ed8656a2] (015/1209) Accurately ripped
04 [770f18a6] (015/1210) Accurately ripped
05 [98abefd2] (015/1213) Accurately ripped
06 [9f3984ed] (015/1210) Accurately ripped
07 [20884128] (015/1215) Accurately ripped
08 [469df08d] (015/1209) Accurately ripped
09 [fee99008] (015/1212) Accurately ripped
10 [0b9ec91b] (015/1212) Accurately ripped
11 [e8af95a2] (015/1217) Accurately ripped
12 [16dcad52] (015/1205) Accurately ripped
13 [5e2424d5] (015/1200) Accurately ripped
14 [4c465685] (015/1203) Accurately ripped
15 [60f761e6] (015/1199) Accurately ripped
Offsetted by 295:
01 [042692b7] (003/1226) Accurately ripped
02 [d0cd4c60] (003/1213) Accurately ripped
03 [13085506] (003/1209) Accurately ripped
04 [7a22dfde] (003/1210) Accurately ripped
05 [8d757292] (003/1213) Accurately ripped
06 [800ee29d] (003/1210) Accurately ripped
07 [4bec105c] (003/1215) Accurately ripped
08 [7d044095] (003/1209) Accurately ripped
09 [81b67118] (003/1212) Accurately ripped
10 [0d6c86a3] (003/1212) Accurately ripped
11 [db8f99ca] (003/1217) Accurately ripped
12 [394219f2] (003/1205) Accurately ripped
13 [b221ff4d] (003/1200) Accurately ripped
14 [0d810791] (003/1203) Accurately ripped
15 [99944c1b] (003/1199) Accurately ripped
Offsetted by 307:
01 [602ed33f] (007/1226) Accurately ripped
02 [3020354c] (006/1213) Accurately ripped
03 [e6c73e8a] (006/1209) Accurately ripped
04 [75b2f0d6] (006/1210) Accurately ripped
05 [60598b52] (006/1213) Accurately ripped
06 [13b8cdcd] (006/1210) Accurately ripped
07 [512cb130] (006/1215) Accurately ripped
08 [361c80dd] (006/1209) Accurately ripped
09 [d9573aa8] (006/1212) Accurately ripped
10 [0d74a06b] (006/1212) Accurately ripped
11 [fac4ef32] (006/1217) Accurately ripped
12 [93afab92] (006/1205) Accurately ripped
13 [c5923d85] (006/1200) Accurately ripped
14 [3dce68fd] (006/1203) Accurately ripped
15 [d295e7cb] (006/1199) Accurately ripped
Offsetted by 665:
01 [99cfadc3] (020/1226) Accurately ripped
02 [cbf45a22] (020/1213) Accurately ripped
03 [be86ca6c] (019/1209) Accurately ripped
04 [1bfceb12] (019/1210) Accurately ripped
05 [f3ee6db2] (020/1213) Accurately ripped
06 [9e5b60e5] (020/1210) Accurately ripped
07 [6ddf6f3a] (020/1215) Accurately ripped
08 [c81aa941] (020/1209) Accurately ripped
09 [ba3eb7f0] (020/1212) Accurately ripped
10 [63bba18f] (020/1212) Accurately ripped
11 [1dd16326] (020/1217) Accurately ripped
12 [1d747962] (020/1205) Accurately ripped
13 [897c2861] (021/1200) Accurately ripped
14 [5ed2ee13] (021/1203) Accurately ripped
15 [f4b3f55f] (021/1199) Accurately ripped
Offsetted by 676:
01 [2e2c9395] (167/1226) Accurately ripped
02 [e355afa5] (165/1213) Accurately ripped
03 [95f5cb25] (166/1209) Accurately ripped
04 [ad40faa0] (167/1210) Accurately ripped
05 [b53f8462] (167/1213) Accurately ripped
06 [5061cdd1] (167/1210) Accurately ripped
07 [b2b002a7] (166/1215) Accurately ripped
08 [71c63983] (167/1209) Accurately ripped
09 [dfe770b4] (167/1212) Accurately ripped
10 [8e6db931] (167/1212) Accurately ripped
11 [fa6cf170] (168/1217) Accurately ripped
12 [f058e98a] (166/1205) Accurately ripped
13 [5b4db6bf] (165/1200) Accurately ripped
14 [4b19dcb6] (165/1203) Accurately ripped
15 [dd7aca5e] (162/1199) Accurately ripped
Offsetted by 745:
01 [ff5c06a3] (004/1226) Accurately ripped
02 [47726af2] (004/1213) Accurately ripped
03 [977f89dc] (004/1209) Accurately ripped
04 [53bd5c32] (004/1210) Accurately ripped
05 [71df12b2] (004/1213) Accurately ripped
06 [2172d625] (004/1210) Accurately ripped
07 [90e39f6a] (005/1215) Accurately ripped
08 [9a11ab21] (004/1209) Accurately ripped
09 [57c3f7b0] (005/1212) Accurately ripped
10 [0e9c4d6f] (004/1212) Accurately ripped
11 [eddf9c86] (004/1217) Accurately ripped
12 [784eeee2] (004/1205) Accurately ripped
13 [0b131c81] (004/1200) Accurately ripped
14 [a0d6cce3] (004/1203) Accurately ripped
15 [74df0460] (004/1199) Accurately ripped
Offsetted by 747:
01 [8eb2bc0f] (006/1226) Accurately ripped
02 [d75591c4] (005/1213) Accurately ripped
03 [901f5b72] (006/1209) Accurately ripped
04 [28555f06] (006/1210) Accurately ripped
05 [950516d2] (005/1213) Accurately ripped
06 [e4b9d2ad] (006/1210) Accurately ripped
07 [11c3ba38] (006/1215) Accurately ripped
08 [b8eb0b2d] (006/1209) Accurately ripped
09 [bbb41948] (005/1212) Accurately ripped
10 [b94851bb] (006/1212) Accurately ripped
11 [73132ac2] (006/1217) Accurately ripped
12 [876131d2] (008/1205) Accurately ripped
13 [8e507c35] (005/1200) Accurately ripped
14 [28e3b275] (005/1203) Accurately ripped
15 [0dbffa89] (006/1199) Accurately ripped
Offsetted by 983:
01 [a0aa5bd7] (048/1226) Accurately ripped
02 [2a097690] (048/1213) Accurately ripped
03 [29c9f696] (047/1209) Accurately ripped
04 [2666acbe] (048/1210) Accurately ripped
05 [c88afd92] (048/1213) Accurately ripped
06 [e772395d] (047/1210) Accurately ripped
07 [7910152c] (048/1215) Accurately ripped
08 [f11d50b5] (047/1209) Accurately ripped
09 [cc639558] (048/1212) Accurately ripped
10 [64924cc3] (048/1212) Accurately ripped
11 [d8d6ba6a] (048/1217) Accurately ripped
12 [79cc0c72] (048/1205) Accurately ripped
13 [0c9a992d] (047/1200) Accurately ripped
14 [ded583c1] (047/1203) Accurately ripped
15 [46adfff1] (045/1199) Accurately ripped
Offsetted by 999:
01 [1b600737] (009/1226) Accurately ripped
02 [a922ad20] (010/1213) Accurately ripped
03 [eec88346] (010/1209) Accurately ripped
04 [cb26c35e] (010/1210) Accurately ripped
05 [e1bb1e92] (010/1213) Accurately ripped
06 [01aa1d9d] (010/1210) Accurately ripped
07 [8010eb9c] (010/1215) Accurately ripped
08 [e7e85115] (010/1209) Accurately ripped
09 [ebe4a218] (010/1212) Accurately ripped
10 [b9f26f23] (010/1212) Accurately ripped
11 [02732c4a] (010/1217) Accurately ripped
12 [f25e23f2] (010/1205) Accurately ripped
13 [268596cd] (010/1200) Accurately ripped
14 [1f3cb051] (010/1203) Accurately ripped
15 [0f4c3012] (010/1199) Accurately ripped
Offsetted by 1074:
01 [9a939a89] (013/1226) Accurately ripped
02 [bce8dce3] (011/1213) Accurately ripped
03 [da31b6bf] (011/1209) Accurately ripped
04 [ef6b2d6c] (011/1210) Accurately ripped
05 [07ccb942] (011/1213) Accurately ripped
06 [1c901b89] (011/1210) Accurately ripped
07 [e0e4d8c9] (011/1215) Accurately ripped
08 [6cbfe2d7] (010/1209) Accurately ripped
09 [8f918ddc] (010/1212) Accurately ripped
10 [3a251045] (011/1212) Accurately ripped
11 [85808214] (013/1217) Accurately ripped
12 [a78af21a] (010/1205) Accurately ripped
13 [60031bab] (010/1200) Accurately ripped
14 [0d205134] (010/1203) Accurately ripped
15 [a35ce569] (011/1199) Accurately ripped
Offsetted by 1128:
01 [b8b8bced] (002/1226) Accurately ripped
02 [e9ddf509] (002/1213) Accurately ripped
03 [130cd191] (002/1209) Accurately ripped
04 [5b7379c8] (002/1210) Accurately ripped
05 [bccf28a2] (002/1213) Accurately ripped
06 [b50cbde1] (002/1210) Accurately ripped
07 [7887ac83] (002/1215) Accurately ripped
08 [adad041b] (002/1209) Accurately ripped
09 [19e518e4] (002/1212) Accurately ripped
10 [3a498449] (002/1212) Accurately ripped
11 [91f08268] (002/1217) Accurately ripped
12 [3e78016a] (002/1205) Accurately ripped
13 [377c33a7] (002/1200) Accurately ripped
14 [667c879a] (002/1203) Accurately ripped
15 [cf99a4d9] (002/1199) Accurately ripped
Offsetted by 1300:
01 [dfd9af35] (008/1226) Accurately ripped
02 [402cff95] (008/1213) Accurately ripped
03 [98bd39f5] (008/1209) Accurately ripped
04 [c6846d00] (008/1210) Accurately ripped
05 [8b948b62] (008/1213) Accurately ripped
06 [4ee59391] (008/1210) Accurately ripped
07 [c3d0adb7] (008/1215) Accurately ripped
08 [0ab34823] (008/1209) Accurately ripped
09 [ac9061f4] (008/1212) Accurately ripped
10 [9012f5d1] (008/1212) Accurately ripped
11 [51424a90] (008/1217) Accurately ripped
12 [4e9a7e0a] (008/1205) Accurately ripped
13 [4e1a5a1f] (008/1200) Accurately ripped
14 [1ad1a6a6] (008/1203) Accurately ripped
15 [5305cdb9] (008/1199) Accurately ripped
Offsetted by 1343:
01 [69a1ebc7] (002/1226) Accurately ripped
02 [55c0c238] (002/1213) Accurately ripped
03 [fa29540e] (002/1209) Accurately ripped
04 [a148a9ce] (002/1210) Accurately ripped
05 [7f45e412] (002/1213) Accurately ripped
06 [355bc8fd] (002/1210) Accurately ripped
07 [16a2ee04] (002/1215) Accurately ripped
08 [a1f4d925] (002/1209) Accurately ripped
09 [113b3438] (002/1212) Accurately ripped
10 [65855233] (002/1212) Accurately ripped
11 [8116bc9a] (002/1217) Accurately ripped
12 [12a31d32] (002/1205) Accurately ripped
13 [53c1e3bd] (002/1200) Accurately ripped
14 [87e6ee69] (002/1203) Accurately ripped
15 [33e0d7f1] (002/1199) Accurately ripped
Offsetted by 1491:
01 [d8b25cff] (007/1226) Accurately ripped
02 [ed69faec] (007/1213) Accurately ripped
03 [d85be96a] (007/1209) Accurately ripped
04 [15397b16] (007/1210) Accurately ripped
05 [a8431552] (007/1213) Accurately ripped
06 [a7e0c84d] (006/1210) Accurately ripped
07 [576aad90] (007/1215) Accurately ripped
08 [8cca9c9d] (006/1209) Accurately ripped
09 [f4a4ea28] (007/1212) Accurately ripped
10 [bb3e902b] (007/1212) Accurately ripped
11 [01fdd9f2] (008/1217) Accurately ripped
12 [6dea7692] (006/1205) Accurately ripped
13 [437f8dc5] (006/1200) Accurately ripped
14 [dba14a9d] (006/1203) Accurately ripped
15 [87320111] (006/1199) Accurately ripped
Offsetted by 1809:
01 [df8d0b13] (034/1226) Accurately ripped
02 [4b7f175a] (034/1213) Accurately ripped
03 [439f1594] (033/1209) Accurately ripped
04 [1fa33cc2] (032/1210) Accurately ripped
05 [7cdfa532] (034/1213) Accurately ripped
06 [f0f7a0c5] (034/1210) Accurately ripped
07 [629b5382] (033/1215) Accurately ripped
08 [b5cd4411] (033/1209) Accurately ripped
09 [06c9c790] (033/1212) Accurately ripped
10 [bc153b5f] (033/1212) Accurately ripped
11 [bd033136] (033/1217) Accurately ripped
12 [ca4209a2] (032/1205) Accurately ripped
13 [c69dfe91] (034/1200) Accurately ripped
14 [5ba3e04b] (033/1203) Accurately ripped
15 [c497bdc1] (033/1199) Accurately ripped
Offsetted by 1984:
01 [5db00d7d] (024/1226) Accurately ripped
02 [79a2dc21] (024/1213) Accurately ripped
03 [be3f3859] (024/1209) Accurately ripped
04 [c9983438] (024/1210) Accurately ripped
05 [805e0e22] (024/1213) Accurately ripped
06 [2fbaf141] (024/1210) Accurately ripped
07 [ef347ceb] (025/1215) Accurately ripped
08 [4119982b] (024/1209) Accurately ripped
09 [2f5d4304] (024/1212) Accurately ripped
10 [91e0b359] (024/1212) Accurately ripped
11 [44224eb8] (024/1217) Accurately ripped
12 [70ffeaaa] (024/1205) Accurately ripped
13 [a2183497] (024/1200) Accurately ripped
14 [dc0c57b2] (024/1203) Accurately ripped
15 [2e074699] (024/1199) Accurately ripped
Offsetted by 2228:
01 [ad0282f5] (006/1226) Accurately ripped
02 [0be35c35] (006/1213) Accurately ripped
03 [3a6919d5] (006/1209) Accurately ripped
04 [1a098d40] (006/1210) Accurately ripped
05 [407c0562] (006/1213) Accurately ripped
06 [3f8f4a11] (006/1210) Accurately ripped
07 [5a014317] (006/1215) Accurately ripped
08 [f4b15de3] (006/1209) Accurately ripped
09 [cfcd4574] (006/1212) Accurately ripped
10 [e7dabf91] (006/1212) Accurately ripped
11 [beb41750] (006/1217) Accurately ripped
12 [9fb3d10a] (006/1205) Accurately ripped
13 [2d57d05f] (005/1200) Accurately ripped
14 [b231bf46] (005/1203) Accurately ripped
15 [41c46eb9] (006/1199) Accurately ripped
Offsetted by -30:
01 [879c69a9] (000/1226) No match (V2 was not tested)
02 [7b1d2813] (000/1213) No match (V2 was not tested)
03 [c195cb4f] (000/1209) No match (V2 was not tested)
04 [87a5144c] (000/1210) No match (V2 was not tested)
05 [3dd3d442] (000/1213) No match (V2 was not tested)
06 [0b7f9649] (000/1210) No match (V2 was not tested)
07 [fdab0c99] (000/1215) No match (V2 was not tested)
08 [e808c8f7] (000/1209) No match (V2 was not tested)
09 [11c91e1c] (000/1212) No match (V2 was not tested)
10 [373bcc65] (000/1212) No match (V2 was not tested)
11 [4e55d0b4] (000/1217) No match (V2 was not tested)
12 [282a9c9a] (000/1205) No match (V2 was not tested)
13 [63acbf8b] (000/1200) No match (V2 was not tested)
14 [b1514e64] (000/1203) No match (V2 was not tested)
15 [3f16b2e6] (000/1199) No match (V2 was not tested)
Offsetted by 12:
01 [49b94b85] (000/1226) No match (V2 was not tested)
02 [48bf574d] (000/1213) No match (V2 was not tested)
03 [26b1fc9d] (000/1209) No match (V2 was not tested)
04 [f81d4fb0] (000/1210) No match (V2 was not tested)
05 [1ff22ae2] (000/1213) No match (V2 was not tested)
06 [10524d71] (000/1210) No match (V2 was not tested)
07 [900d3f7f] (000/1215) No match (V2 was not tested)
08 [6fdda9f3] (000/1209) No match (V2 was not tested)
09 [447bdf94] (000/1212) No match (V2 was not tested)
10 [375826a1] (000/1212) No match (V2 was not tested)
11 [3b907ba0] (000/1217) No match (V2 was not tested)
12 [64aa1a4a] (000/1205) No match (V2 was not tested)
13 [27b5994f] (000/1200) No match (V2 was not tested)
14 [da60235e] (000/1203) No match (V2 was not tested)
15 [fbc23612] (000/1199) No match (V2 was not tested)
Offsetted by 359:
01 [eefd4037] (008/1226) Accurately ripped
02 [cd3226a0] (007/1213) Accurately ripped
03 [270287c6] (007/1209) Accurately ripped
04 [0d233a5e] (008/1210) Accurately ripped
05 [f235f692] (006/1213) Accurately ripped
06 [e8ee739d] (000/1210) No match (V2 was not tested)
07 [67ef6a1c] (000/1215) No match (V2 was not tested)
08 [58304215] (008/1209) Accurately ripped
09 [ffbaa418] (007/1212) Accurately ripped
10 [62ed1023] (008/1212) Accurately ripped
11 [8201614a] (008/1217) Accurately ripped
12 [1b8a77f2] (006/1205) Accurately ripped
13 [19cdf5cd] (006/1200) Accurately ripped
14 [0f1db9d1] (007/1203) Accurately ripped
15 [c375a4c9] (006/1199) Accurately ripped
Offsetted by 580:
01 [4dea8f55] (000/1226) No match (V2 was not tested)
02 [e8be6845] (000/1213) No match (V2 was not tested)
03 [f7fe7f05] (000/1209) No match (V2 was not tested)
04 [d0c072e0] (000/1210) No match (V2 was not tested)
05 [1e1ebe62] (000/1213) No match (V2 was not tested)
06 [b3127451] (000/1210) No match (V2 was not tested)
07 [88aafc07] (000/1215) No match (V2 was not tested)
08 [a9043743] (000/1209) No match (V2 was not tested)
09 [22e12434] (000/1212) No match (V2 was not tested)
10 [8e2ceaf1] (000/1212) No match (V2 was not tested)
11 [00c24630] (000/1217) No match (V2 was not tested)
12 [1cec5c8a] (000/1205) No match (V2 was not tested)
13 [bfcbc4ff] (000/1200) No match (V2 was not tested)
14 [c8aed156] (000/1203) No match (V2 was not tested)
15 [3cb1d2da] (000/1199) No match (V2 was not tested)

Track Peak [ CRC32 ] [W/O NULL] [ LOG ]
– 98,8 [586F163E] [534819B4] CRC32
01 98,8 [410FF2C1] [4132535E]
02 77,8 [1774EA6C] [E135F7BD]
03 98,8 [FBCB192F] [49B69FD3]
04 67,9 [362A3396] [5F8566C6]
05 66,7 [831D388E] [C404B498]
06 64,2 [61B850F1] [19C52A78]
07 94,3 [1762FAF3] [8045986C]
08 98,8 [DDE94FA0] [26E94A27]
09 82,5 [493DF8A1] [F7931C3C]
10 98,8 [1D506E7B] [81FD1CD2]
11 82,2 [FB101765] [8488479A]
12 75,7 [D8F3A151] [B1102CDE]
13 59,7 [514D9A20] [ACE74D75]
14 71,3 [30902A99] [40A75158]
15 62,5 [2CDCCB41] [D59146B3]


Simon & Garfunkel - Sounds Of Silence (1966)

All thanks go to snakesharmer

Simon & Garfunkel in my Blog

Download Simon & Garfunkel - Sounds Of Silence (1966):