Tags
Language
Tags

Sinéad O'Connor - I Do Not Want What I Haven't Got (1990)

Posted By: v3122
Sinéad O'Connor - I Do Not Want What I Haven't Got (1990)

Sinéad O'Connor - I Do Not Want What I Haven't Got (1990)
EAC | Flac(Image) + Cue + Log & MP3 CBR 320Kbps
Chrysalis/Ensign‎, F2 21759 | ~ 268 or 119 Mb | Artwork(jpg) -> 47 Mb
Alternative Rock, Folk Rock

I Do Not Want What I Haven't Got became Sinéad O'Connor's popular breakthrough on the strength of the stunning Prince cover "Nothing Compares 2 U," which topped the pop charts for a month. But even its remarkable intimacy wasn't adequate preparation for the harrowing confessionals that composed the majority of the album. Informed by her stormy relationship with drummer John Reynolds, who fathered O'Connor's first child before the couple broke up, I Do Not Want What I Haven't Got lays the singer's psyche startlingly and sometimes uncomfortably bare. The songs mostly address relationships with parents, children, and (especially) lovers, through which O'Connor weaves a stubborn refusal to be defined by anyone but herself. In fact, the album is almost too personal and cathartic to draw the listener in close, since O'Connor projects such turmoil and offers such specific detail. Her confrontational openness makes it easy to overlook O'Connor's musical versatility. Granted, not all of the music is as brilliantly audacious as "I Am Stretched on Your Grave," which marries a Frank O'Connor poem to eerie Celtic melodies and a James Brown "Funky Drummer" sample. But the album plays like a tour de force in its demonstration of everything O'Connor can do: dramatic orchestral ballads, intimate confessionals, catchy pop/rock, driving guitar rock, and protest folk, not to mention the nearly six-minute a cappella title track. What's consistent throughout is the frighteningly strong emotion O'Connor brings to bear on the material, while remaining sensitive to each piece's individual demands. Aside from being a brilliant album in its own right, I Do Not Want What I Haven't Got foreshadowed the rise of deeply introspective female singer/songwriters like Tori Amos and Sarah McLachlan, who were more traditionally feminine and connected with a wider audience. Which takes nothing away from anyone; if anything, it's evidence that, when on top of her game, O'Connor was a singular talent.

by Steve Huey, allmusic
Sinéad O'Connor - I Do Not Want What I Haven't Got (1990):

Sinéad O'Connor - I Do Not Want What I Haven't Got (1990)

Tracklist:

01. Feel So Different 6:47
02. I Am Stretched On Your Grave 5:34
03. Three Babies 4:47
04. The Emperor's New Clothes 5:16
05. Black Boys On Mopeds 3:52
06. Nothing Compares 2 U 5:11
07. Jump In The River 4:12
08. You Cause As Much Sorrow 5:06
09. The Last Day Of Our Acquaintance 4:41
10. I Do Not Want What I Haven't Got 5:46

Exact Audio Copy V1.6 from 23. October 2020

EAC extraction logfile from 28. May 2021, 10:26

Sinead O'Connor / I Do Not Want What I Haven't Got

Used drive : ASUS DRW-24D5MT Adapter: 1 ID: 0

Read mode : Secure
Utilize accurate stream : Yes
Defeat audio cache : Yes
Make use of C2 pointers : No

Read offset correction : 6
Overread into Lead-In and Lead-Out : No
Fill up missing offset samples with silence : Yes
Delete leading and trailing silent blocks : No
Null samples used in CRC calculations : Yes
Used interface : Native Win32 interface for Win NT & 2000

Used output format : User Defined Encoder
Selected bitrate : 768 kBit/s
Quality : High
Add ID3 tag : No
Command line compressor : C:\Program Files (x86)\Exact Audio Copy\Flac\flac.exe
Additional command line options : -V -8 -T "Genre=%genre%" -T "Artist=%artist%" -T "Title=%title%" -T "Album=%albumtitle%" -T "Date=%year%" -T "Tracknumber=%tracknr%" -T "Comment=%comment%" %source%


TOC of the extracted CD

Track | Start | Length | Start sector | End sector
––––––––––––––––––––––––––––-
1 | 0:00.00 | 6:46.72 | 0 | 30521
2 | 6:46.72 | 5:33.48 | 30522 | 55544
3 | 12:20.45 | 4:46.62 | 55545 | 77056
4 | 17:07.32 | 5:16.25 | 77057 | 100781
5 | 22:23.57 | 3:52.00 | 100782 | 118181
6 | 26:15.57 | 5:10.45 | 118182 | 141476
7 | 31:26.27 | 4:11.70 | 141477 | 160371
8 | 35:38.22 | 5:05.60 | 160372 | 183306
9 | 40:44.07 | 4:40.40 | 183307 | 204346
10 | 45:24.47 | 5:46.23 | 204347 | 230319


Range status and errors

Selected range

Filename I:\dafnaplus\Sinead O'Connor - I Do Not Want What I Haven't Got\Sinead O'Connor - I Do Not Want What I Haven't Got.wav

Peak level 100.0 %
Extraction speed 2.9 X
Range quality 100.0 %
Test CRC A7C3F91A
Copy CRC A7C3F91A
Copy OK

No errors occurred


AccurateRip summary

Track 1 accurately ripped (confidence 74) [489D0AF6] (AR v2)
Track 2 accurately ripped (confidence 75) [024BFD97] (AR v2)
Track 3 accurately ripped (confidence 75) [E4EC7A8D] (AR v2)
Track 4 accurately ripped (confidence 75) [483B729D] (AR v2)
Track 5 accurately ripped (confidence 74) [06F3E071] (AR v2)
Track 6 accurately ripped (confidence 76) [258E8C32] (AR v2)
Track 7 accurately ripped (confidence 74) [8E98A426] (AR v2)
Track 8 accurately ripped (confidence 75) [83A4E005] (AR v2)
Track 9 accurately ripped (confidence 72) [659D7BD2] (AR v2)
Track 10 accurately ripped (confidence 75) [15868D7F] (AR v2)

All tracks accurately ripped

End of status report

–– CUETools DB Plugin V2.1.6

[CTDB TOCID: N8jJTAi19ICGgggT1IDpTLCLH.I-] found
Submit result: already submitted
Track | CTDB Status
1 | (150/159) Accurately ripped
2 | (156/159) Accurately ripped
3 | (156/159) Accurately ripped
4 | (157/159) Accurately ripped
5 | (157/159) Accurately ripped
6 | (157/159) Accurately ripped
7 | (154/159) Accurately ripped
8 | (157/159) Accurately ripped
9 | (153/159) Accurately ripped
10 | (155/159) Accurately ripped


==== Log checksum 0AB0933BDCFAC71C8DDB68C05D4EE89D8E34D1501524EC48346D84FB56550EE6 ====


[CUETools log; Date: 23.11.2021 13:17:20; Version: 2.1.4]
[AccurateRip ID: 0013dd97-009c6312-890bfe0a] found.
Track [ CRC | V2 ] Status
01 [8a75abf3|489d0af6] (039+078/129) Accurately ripped
02 [63e6ac0e|024bfd97] (039+079/130) Accurately ripped
03 [d5968913|e4ec7a8d] (039+079/130) Accurately ripped
04 [671bf05f|483b729d] (039+079/129) Accurately ripped
05 [689b9263|06f3e071] (039+078/129) Accurately ripped
06 [9b23f30e|258e8c32] (039+080/131) Accurately ripped
07 [fa21042b|8e98a426] (038+078/127) Accurately ripped
08 [a90e6b49|83a4e005] (033+078/123) Accurately ripped
09 [f754286f|659d7bd2] (039+076/127) Accurately ripped
10 [f99f9768|15868d7f] (037+079/127) Accurately ripped
Offsetted by -1177:
01 [b37e3c91] (003/129) Accurately ripped
02 [dda48618] (003/130) Accurately ripped
03 [c7e7cb12] (003/130) Accurately ripped
04 [e0901cf4] (003/129) Accurately ripped
05 [fef03469] (003/129) Accurately ripped
06 [e2bc2642] (003/131) Accurately ripped
07 [606eedfe] (003/127) Accurately ripped
08 [13a9fe51] (003/123) Accurately ripped
09 [95b28250] (003/127) Accurately ripped
10 [0fa7883c] (003/127) Accurately ripped

Track Peak [ CRC32 ] [W/O NULL] [ LOG ]
– 100,0 [A7C3F91A] [9EF3A66E] CRC32
01 69,8 [E998FFF1] [C9246CF4]
02 93,2 [29B37078] [D20E91BD]
03 67,5 [46D0607F] [612D3870]
04 88,3 [1FACAD0C] [6F95B488]
05 75,1 [1E59B8DB] [7613D10F]
06 78,9 [45243CED] [3A0E0590]
07 88,9 [72AE6621] [22BBCF89]
08 75,1 [E62A27DE] [ECB0F979]
09 100,0 [4062A6FD] [84DB0EF4]
10 52,5 [4FE86BFD] [509F80B3]


Sinéad O'Connor - I Do Not Want What I Haven't Got (1990)

All thanks go to the original releaser

Sinéad O'Connor in my Blog

Download Sinéad O'Connor - I Do Not Want What I Haven't Got (1990):