Subcategories

Skinny Puppy - Live: Bootlegged, Broke And In Solvent Seas (2012)

Posted By: uff
Skinny Puppy - Live: Bootlegged, Broke And In Solvent Seas (2012)

Skinny Puppy - Live: Bootlegged, Broke And In Solvent Seas (2012)
Electronic | 1cd | EAC Rip | Flac + Cue + Log | covers
Metropolis, MET 810 | rel: 2012 | 470Mb

Raw, uncompromising, and visceral, Skinny Puppy live cannot be called simply a concert. It is an experience. Bootlegged, Broke And In Solvent Seas proves this to be true. Recorded in Warsaw, Bratislava, Hildesheim, and Budapest, this is a documentation of Skinny Puppy in top form. Unlike so many other live albums, there is no editing magic or trickery. These are the songs as they were played: captured from the soundboard and a handheld recorder by Ken ‘Hi-Watt’ Marshall. Ogre’s powerful vocal performances coupled with cEvin Key’s synth modulations and sound manipulations and the machine-precise drums of Justin Bennet make this a stunning testimony to the power of this legendary act.

Track listing
01. Prelude (Warsaw) (2:40)
02. Rodent (Warsaw) (5:50)
03. Deadlines (Bratislava) (6:12)
04. Dogshit (Warsaw) (3:46)
05. Addiction (Bratislava) (6:14)
06. Hatekill (Warsaw) (4:37)
07. Worlock (Hildesheim) (5:46)
08. Morpheus Laughing (Warsaw) (4:08)
09. Assimilate (Warsaw) (10:46)
10. Shore Lined Poison (Budapest) (7:11)


Exact Audio Copy V1.0 beta 3 from 29. August 2011

EAC extraction logfile from 4. December 2012, 7:18

Skinny Puppy / Bootlegged, Broke and In Solvent Seas

Used drive : PLEXTOR CD-R PX-240A Adapter: 1 ID: 0

Read mode : Secure
Utilize accurate stream : Yes
Defeat audio cache : Yes
Make use of C2 pointers : No

Read offset correction : 6
Overread into Lead-In and Lead-Out : No
Fill up missing offset samples with silence : Yes
Delete leading and trailing silent blocks : No
Null samples used in CRC calculations : Yes
Used interface : Installed external ASPI interface

Used output format : Internal WAV Routines
Sample format : 44.100 Hz; 16 Bit; Stereo


TOC of the extracted CD

Track | Start | Length | Start sector | End sector
––––––––––––––––––––––––––––-
1 | 0:00.00 | 2:40.67 | 0 | 12066
2 | 2:40.67 | 5:50.36 | 12067 | 38352
3 | 8:31.28 | 6:12.50 | 38353 | 66302
4 | 14:44.03 | 3:46.44 | 66303 | 83296
5 | 18:30.47 | 6:14.51 | 83297 | 111397
6 | 24:45.23 | 4:37.62 | 111398 | 132234
7 | 29:23.10 | 5:46.72 | 132235 | 158256
8 | 35:10.07 | 4:08.04 | 158257 | 176860
9 | 39:18.11 | 10:46.42 | 176861 | 225352
10 | 50:04.53 | 7:11.11 | 225353 | 257688


Range status and errors

Selected range

Filename P:\Seeding Archive\Skinny Puppy\2012-Bootlegged, Broke and In Solvent Seas\Bootlegged, Broke and In Solvent Seas.wav

Peak level 99.3 %
Extraction speed 8.9 X
Range quality 99.9 %
Test CRC AF3BE0B2
Copy CRC AF3BE0B2
Copy OK

No errors occurred


AccurateRip summary

Track 1 not present in database
Track 2 not present in database
Track 3 not present in database
Track 4 not present in database
Track 5 cannot be verified as accurate (confidence 1) [8BA1C8C8], AccurateRip returned [C17670A9] (AR v2)
Track 6 not present in database
Track 7 not present in database
Track 8 not present in database
Track 9 not present in database
Track 10 not present in database

1 track(s) could not be verified as accurate
9 track(s) not present in the AccurateRip database

No tracks could be verified as accurate
You may have a different pressing from the one(s) in the database

End of status report

==== Log checksum 7908C38E730B22501EDAF9B1DF76CE2459C25A33E06BF975A3AF389F70852B62 ====



[CUETools log; Date: 2016. 12. 09. 12:01:05; Version: 2.1.6]
[CTDB TOCID: QJ7iOt7HBNVAad7jDBUii9j7SQ0-] found.
Track | CTDB Status
1 | (17/17) Accurately ripped
2 | (17/17) Accurately ripped
3 | (17/17) Accurately ripped
4 | (17/17) Accurately ripped
5 | (17/17) Accurately ripped
6 | (17/17) Accurately ripped
7 | (17/17) Accurately ripped
8 | (17/17) Accurately ripped
9 | (17/17) Accurately ripped
10 | (17/17) Accurately ripped
[AccurateRip ID: 001340f5-009e1806-700d6b0a] found.
Track [ CRC | V2 ] Status
01 [207aa70c|fee5ab8f] (00+11/16) Accurately ripped
02 [a6b87f4f|016489f1] (00+11/16) Accurately ripped
03 [e3163939|da9ecdc2] (00+11/16) Accurately ripped
04 [7b7febab|a7d5b064] (00+11/16) Accurately ripped
05 [b9cc2667|8ba1c8c8] (00+11/16) Accurately ripped
06 [dc20ba9e|7f33a4b1] (00+11/16) Accurately ripped
07 [877d8b73|a6228135] (00+11/16) Accurately ripped
08 [21f64d67|ca0d8f09] (00+11/16) Accurately ripped
09 [f19aa756|7432a949] (00+11/16) Accurately ripped
10 [affc5a0e|24f5c5a9] (00+11/16) Accurately ripped
Offsetted by -6:
01 [e01e1111] (00/16) No match (V2 was not tested)
02 [5fdedc25] (00/16) No match (V2 was not tested)
03 [f0bf8672] (00/16) No match (V2 was not tested)
04 [34d379ae] (00/16) No match (V2 was not tested)
05 [c17670a9] (00/16) No match (V2 was not tested)
06 [65d57a1e] (00/16) No match (V2 was not tested)
07 [a4e479b0] (00/16) No match (V2 was not tested)
08 [4596bb86] (00/16) No match (V2 was not tested)
09 [e4163be7] (00/16) No match (V2 was not tested)
10 [8910f78c] (00/16) No match (V2 was not tested)

Track Peak [ CRC32 ] [W/O NULL] [ LOG ]
– 99,3 [AF3BE0B2] [6F942806] CRC32
01 94,1 [B2138FC5] [94FED534]
02 99,1 [85F047A5] [CFD3DA7F]
03 99,3 [72DA7D52] [3AE909D7]
04 99,1 [7343E727] [6130859E]
05 99,2 [1364D2B4] [079D15B7]
06 99,1 [0B28170B] [576E62EC]
07 99,2 [D74E6563] [7A0E3C39]
08 99,1 [13492C6C] [C1BD75A6]
09 99,1 [DD26DCCC] [884B884C]
10 99,1 [B999E014] [6C24629B]


Thx to hexonut
Bigfile
Filefactory

password: asd