Tags
Language
Tags

Skyhooks - Straight in a Gay Gay World (1976)

Posted By: v3122
Skyhooks - Straight in a Gay Gay World (1976)

Skyhooks - Straight in a Gay Gay World (1976)
EAC | Flac(Image) + Cue + Log & MP3 CBR 320Kbps
1994 | Mushroom, D80891 | ~ 262 or 90 Mb | Artwork(jpg) -> 5.48 Mb
Hard Rock, Glam Rock

Straight in a Gay Gay World was the third studio album by Australian rock band, Skyhooks. The album was released in August 1976. With the exception of "Million Dollar Riff", it was recorded at The Record Plant in Sausalito, California, after the band's first tour of the United States earlier in the same year. The title and songs are a sort of view the band had on their experience in the States. The album was produced by former Daddy Cool leader Ross Wilson. It peaked at No. 3 on Australian charts.

At the Australian 1976 King of Pop Awards the album won Best Cover Design.

"Million Dollar Riff" was released as a single in November 1975 and it reached No. 6 in Australia. Two further singles were lifted from this album, "This is My City" and "Blue Jeans", both in 1976 which peaked at No. 32 and No. 12 respectively on Australian charts…

~ wiki
Skyhooks - Straight in a Gay Gay World (1976):

Skyhooks - Straight in a Gay Gay World (1976)

Tracklist:

01. Million Dollar Riff (3:50)
02. Is This America (4:32)
03. Blue Jeans (2:30)
04. Somewhere In Sydney (3:47)
05. The Girl Says She's Bored (3:33)
06. This Is My City (3:40)
07. Straight In A Gay Gay World (4:29)
08. I'm Normal (3:16)
09. Mumbo Jumbo (3:24)
10. Crazy Heart (4:57)

Exact Audio Copy V1.0 beta 3 from 29. August 2011

EAC extraction logfile from 22. March 2013, 15:46

Skyhooks / Straight in a Gay Gay World

Used drive : ATAPI iHAS324 A Adapter: 0 ID: 1

Read mode : Secure
Utilize accurate stream : Yes
Defeat audio cache : Yes
Make use of C2 pointers : No

Read offset correction : 6
Overread into Lead-In and Lead-Out : No
Fill up missing offset samples with silence : Yes
Delete leading and trailing silent blocks : No
Null samples used in CRC calculations : Yes
Used interface : Native Win32 interface for Win NT & 2000

Used output format : Internal WAV Routines
Sample format : 44.100 Hz; 16 Bit; Stereo


TOC of the extracted CD

Track | Start | Length | Start sector | End sector
––––––––––––––––––––––––––––-
1 | 0:00.00 | 3:50.35 | 0 | 17284
2 | 3:50.35 | 4:32.02 | 17285 | 37686
3 | 8:22.37 | 2:30.38 | 37687 | 48974
4 | 10:53.00 | 3:46.65 | 48975 | 65989
5 | 14:39.65 | 3:33.12 | 65990 | 81976
6 | 18:13.02 | 3:40.48 | 81977 | 98524
7 | 21:53.50 | 4:29.00 | 98525 | 118699
8 | 26:22.50 | 3:15.72 | 118700 | 133396
9 | 29:38.47 | 3:24.20 | 133397 | 148716
10 | 33:02.67 | 4:57.43 | 148717 | 171034


Range status and errors

Selected range

Filename D:\rips\Skyhooks - Straight in a Gay Gay World.wav

Peak level 98.8 %
Extraction speed 3.4 X
Range quality 99.9 %
Copy CRC D2558EB2
Copy OK

No errors occurred


AccurateRip summary

Track 1 accurately ripped (confidence 2) [B218C9B3] (AR v1)
Track 2 accurately ripped (confidence 2) [4AB827D4] (AR v1)
Track 3 accurately ripped (confidence 2) [627637B3] (AR v1)
Track 4 accurately ripped (confidence 2) [902DB5CC] (AR v1)
Track 5 accurately ripped (confidence 2) [75D2DF10] (AR v1)
Track 6 accurately ripped (confidence 2) [5CD694B2] (AR v1)
Track 7 accurately ripped (confidence 2) [B7D057BC] (AR v1)
Track 8 accurately ripped (confidence 2) [9C7802B6] (AR v1)
Track 9 accurately ripped (confidence 2) [4EA4436E] (AR v1)
Track 10 accurately ripped (confidence 2) [F1F18452] (AR v1)

All tracks accurately ripped

End of status report

–– CUETools DB Plugin V2.1.3

[CTDB TOCID: 82DlSca3Sr2k1vPu_tfzpPcOgAk-] found, Submit result: 82DlSca3Sr2k1vPu_tfzpPcOgAk- has been uploaded
[7a161dea] (1/1) Differs in 18 samples @35:32:13
You can use CUETools to repair this rip.


==== Log checksum A6A59724E25EDC40BF479E64519D5752B3CC230992967280D570668C2263A850 ====


[CUETools log; Date: 19.08.2021 9:23:19; Version: 2.1.4]
[AccurateRip ID: 000e12b0-007083b3-8408e80a] found.
Track [ CRC | V2 ] Status
01 [b218c9b3|b06eab0b] (2+2/4) Accurately ripped
02 [4ab827d4|032b8a1b] (2+2/4) Accurately ripped
03 [627637b3|e2ac20eb] (2+2/4) Accurately ripped
04 [902db5cc|134670e4] (2+2/4) Accurately ripped
05 [75d2df10|bd673966] (2+2/4) Accurately ripped
06 [5cd694b2|20400d41] (2+2/4) Accurately ripped
07 [b7d057bc|e906fcb0] (2+2/4) Accurately ripped
08 [9c7802b6|bf41e85f] (2+2/4) Accurately ripped
09 [4ea4436e|bdb5c622] (2+2/4) Accurately ripped
10 [f1f18452|4dfc0013] (2+2/4) Accurately ripped
Offsetted by 664:
01 [fba47ccb] (0/4) No match (V2 was not tested)
02 [ef1fa194] (0/4) No match (V2 was not tested)
03 [67253af3] (0/4) No match (V2 was not tested)
04 [62934854] (0/4) No match (V2 was not tested)
05 [cdc59ca8] (0/4) No match (V2 was not tested)
06 [6f0a779a] (0/4) No match (V2 was not tested)
07 [927c02f4] (0/4) No match (V2 was not tested)
08 [4698c45e] (0/4) No match (V2 was not tested)
09 [2b4de03e] (0/4) No match (V2 was not tested)
10 [ac0570e2] (0/4) No match (V2 was not tested)

Track Peak [ CRC32 ] [W/O NULL] [ LOG ]
– 98,8 [D2558EB2] [7F18033E] CRC32
01 98,8 [D5448B5F] [D860AF5E]
02 98,8 [76839BFC] [F050673E]
03 98,8 [D3706DC7] [57C94DF8]
04 98,8 [5BFA4614] [08FCF56C]
05 98,8 [E7612D61] [6EE8D382]
06 98,8 [9A2DCCB4] [141ED810]
07 98,8 [9746BF55] [28DBE799]
08 98,8 [8EC5A3B8] [C9ADEE7E]
09 98,8 [DDBBD2B2] [5602A603]
10 98,8 [380CD2AB] [DC675C4B]


Skyhooks - Straight in a Gay Gay World (1976)

All thanks go to the original releaser

Skyhooks in my Blog

Download Skyhooks - Straight in a Gay Gay World (1976):