Tags
Language
Tags
July 2024
Su Mo Tu We Th Fr Sa
30 1 2 3 4 5 6
7 8 9 10 11 12 13
14 15 16 17 18 19 20
21 22 23 24 25 26 27
28 29 30 31 1 2 3

Skyy - Skyyhigh: The Skyy Anthology 1979-1992 (Remastered) (2014)

Posted By: Rtax
Skyy - Skyyhigh: The Skyy Anthology 1979-1992 (Remastered) (2014)

Skyy - Skyyhigh: The Skyy Anthology 1979-1992 (Remastered) (2014)
EAC Rip | FLAC (tracks, cue, log) - 1 GB | MP3 CBR 320 kbps - 353 MB
2:34:25 | Soul, R&B, Funk, Disco, Dance | Label: Big Break Records

2014 two CD set. SKYYHIGH: THE Skyy ANTHOLOGY gathers together the best singles and album cuts credited to the group from a chart career spanning three decades and including many bone-fide classics such as 'First Time Around,' 'High,' 'Here's to You,' 'Let's Celebrate,' 'Movin' Violation,' and 'Show Me the Way' as well as their biggest R&B hit, the #1 'Call Me.' SKYYHIGH: THE Skyy ANTHOLOGY, is presented as a double CD package inside a super jewel case complete with extensive liner notes, archive pictures and full credits for every track. Featuring all of the groups R&B charted singles from their Salsoul period - SKYYHIGH: THE Skyy ANTHOLOGY, is a definitive anthology of an incredible group who became one of the leading lights of the Disco and Dance scene in the 1970's and 1980's making this a must have for all R&B, Soul, Funk, Disco and Dance fans out there!

Tracklist
Disc One
1. First Time Around (12' Version) [07:32]
2. Let's Turn It Out [06:39]
3. This Groove Is Bad [06:22]
4. Disco Dancin' [04:14]
5. Fallin' In Love Again [04:53]
6. High [05:03]
7. Skyyzoo (12' Version) [08:32]
8. Love Plane [05:25]
9. You Got Me Up [05:07]
10. Here's To You [05:18]
11. Superlove [05:06]
12. Take It Easy [05:00]
13. For The First Time [04:03]
14. No Music [02:16]

Disc Two
1.Call Me [06:22]
2. Let's Celebrate (12' Version) [07:07]
3. When You Touch Me [03:39]
4. Get Into The Beat [04:27]
5. Movin' Violation [04:57]
6. Let Love Shine (12' Version) [05:47]
7. Bad Boy (12' Version) [06:14]
8. Show Me The Way (12' Version) [05:54]
9. Dancin' To Be Dancin' (12' Version) [05:16]
10. Because Of You (12' M&M Mix) [08:14]
11. Givin' It (To You) (12' Special Mix) [06:03]
12. Start Of A Romance [04:47]
13. Real Love [05:12]
14. Up & Over (Stronger & Better) [04:40]
Exact Audio Copy V1.0 beta 3 from 29. August 2011

EAC extraction logfile from 14. November 2014, 10:25

Skyy / Skyy High - The Skyy Anthology 1979-1992 (Disk One)

Used drive : HP DVD Writer 1260t Adapter: 3 ID: 0

Read mode : Secure
Utilize accurate stream : Yes
Defeat audio cache : Yes
Make use of C2 pointers : No

Read offset correction : 6
Overread into Lead-In and Lead-Out : No
Fill up missing offset samples with silence : Yes
Delete leading and trailing silent blocks : No
Null samples used in CRC calculations : Yes
Used interface : Native Win32 interface for Win NT & 2000
Gap handling : Appended to previous track

Used output format : User Defined Encoder
Selected bitrate : 128 kBit/s
Quality : High
Add ID3 tag : No
Command line compressor : C:\Program Files (x86)\Exact Audio Copy\Flac\flac.exe
Additional command line options : -8 -V -T "ARTIST=%artist%" -T "TITLE=%title%" -T "ALBUM=%albumtitle%" -T "DATE=%year%" -T "TRACKNUMBER=%tracknr%" -T "GENRE=%genre%" -T "PERFORMER=%albuminterpret%" -T "COMPOSER=%composer%" %haslyrics%–tag-from-file=LYRICS="%lyricsfile%"%haslyrics% -T "ALBUMARTIST=%albumartist%" -T "DISCNUMBER=%cdnumber%" -T "TOTALDISCS=%totalcds%" -T "TOTALTRACKS=%numtracks%" -T "COMMENT=%comment%" %source% -o %dest%


TOC of the extracted CD

Track | Start | Length | Start sector | End sector
––––––––––––––––––––––––––––-
1 | 0:00.00 | 7:32.21 | 0 | 33920
2 | 7:32.21 | 6:39.71 | 33921 | 63916
3 | 14:12.17 | 6:22.01 | 63917 | 92567
4 | 20:34.18 | 4:14.51 | 92568 | 111668
5 | 24:48.69 | 4:53.14 | 111669 | 133657
6 | 29:42.08 | 5:03.20 | 133658 | 156402
7 | 34:45.28 | 8:32.72 | 156403 | 194874
8 | 43:18.25 | 5:25.59 | 194875 | 219308
9 | 48:44.09 | 5:07.69 | 219309 | 242402
10 | 53:52.03 | 5:18.16 | 242403 | 266268
11 | 59:10.19 | 5:06.31 | 266269 | 289249
12 | 64:16.50 | 5:00.48 | 289250 | 311797
13 | 69:17.23 | 4:03.57 | 311798 | 330079
14 | 73:21.05 | 2:16.50 | 330080 | 340329


Track 1

Filename F:\Music Place\FLAC & WAV\SKYY\Skyy - SkyyHigh-The Skyy Anthology 1979-1992 (2014)\Disc 1\01. Skyy - First Time Around (12'' Version).wav

Pre-gap length 0:00:02.00

Peak level 96.6 %
Extraction speed 4.3 X
Track quality 100.0 %
Test CRC 3F86F51D
Copy CRC 3F86F51D
Track not present in AccurateRip database
Copy OK

Track 2

Filename F:\Music Place\FLAC & WAV\SKYY\Skyy - SkyyHigh-The Skyy Anthology 1979-1992 (2014)\Disc 1\02. Skyy - Let's Turn It Out.wav

Pre-gap length 0:00:02.89

Peak level 96.6 %
Extraction speed 4.9 X
Track quality 100.0 %
Test CRC 934FA758
Copy CRC 934FA758
Track not present in AccurateRip database
Copy OK

Track 3

Filename F:\Music Place\FLAC & WAV\SKYY\Skyy - SkyyHigh-The Skyy Anthology 1979-1992 (2014)\Disc 1\03. Skyy - This Groove Is Bad.wav

Pre-gap length 0:00:03.56

Peak level 96.6 %
Extraction speed 5.4 X
Track quality 100.0 %
Test CRC 8624BE83
Copy CRC 8624BE83
Track not present in AccurateRip database
Copy OK

Track 4

Filename F:\Music Place\FLAC & WAV\SKYY\Skyy - SkyyHigh-The Skyy Anthology 1979-1992 (2014)\Disc 1\04. Skyy - Disco Dancin'.wav

Pre-gap length 0:00:02.89

Peak level 96.6 %
Extraction speed 5.5 X
Track quality 100.0 %
Test CRC B74642B0
Copy CRC B74642B0
Track not present in AccurateRip database
Copy OK

Track 5

Filename F:\Music Place\FLAC & WAV\SKYY\Skyy - SkyyHigh-The Skyy Anthology 1979-1992 (2014)\Disc 1\05. Skyy - Fallin' In Love Again.wav

Pre-gap length 0:00:02.89

Peak level 95.3 %
Extraction speed 5.9 X
Track quality 100.0 %
Test CRC 767DDD9C
Copy CRC 767DDD9C
Track not present in AccurateRip database
Copy OK

Track 6

Filename F:\Music Place\FLAC & WAV\SKYY\Skyy - SkyyHigh-The Skyy Anthology 1979-1992 (2014)\Disc 1\06. Skyy - High.wav

Pre-gap length 0:00:00.92

Peak level 96.6 %
Extraction speed 6.2 X
Track quality 100.0 %
Test CRC 108A9FAE
Copy CRC 108A9FAE
Track not present in AccurateRip database
Copy OK

Track 7

Filename F:\Music Place\FLAC & WAV\SKYY\Skyy - SkyyHigh-The Skyy Anthology 1979-1992 (2014)\Disc 1\07. Skyy - Skyyzoo (12'' Version).wav

Pre-gap length 0:00:00.62

Peak level 96.6 %
Extraction speed 6.9 X
Track quality 100.0 %
Test CRC 3F5470DB
Copy CRC 3F5470DB
Track not present in AccurateRip database
Copy OK

Track 8

Filename F:\Music Place\FLAC & WAV\SKYY\Skyy - SkyyHigh-The Skyy Anthology 1979-1992 (2014)\Disc 1\08. Skyy - Love Plane.wav

Pre-gap length 0:00:00.21

Peak level 96.6 %
Extraction speed 7.0 X
Track quality 100.0 %
Test CRC 976F9870
Copy CRC 976F9870
Track not present in AccurateRip database
Copy OK

Track 9

Filename F:\Music Place\FLAC & WAV\SKYY\Skyy - SkyyHigh-The Skyy Anthology 1979-1992 (2014)\Disc 1\09. Skyy - You Got Me Up.wav

Pre-gap length 0:00:02.17

Peak level 96.6 %
Extraction speed 7.2 X
Track quality 100.0 %
Test CRC 6D33ACF8
Copy CRC 6D33ACF8
Track not present in AccurateRip database
Copy OK

Track 10

Filename F:\Music Place\FLAC & WAV\SKYY\Skyy - SkyyHigh-The Skyy Anthology 1979-1992 (2014)\Disc 1\10. Skyy - Here's To You.wav

Pre-gap length 0:00:01.14

Peak level 96.6 %
Extraction speed 7.5 X
Track quality 100.0 %
Test CRC B1BAB1FB
Copy CRC B1BAB1FB
Track not present in AccurateRip database
Copy OK

Track 11

Filename F:\Music Place\FLAC & WAV\SKYY\Skyy - SkyyHigh-The Skyy Anthology 1979-1992 (2014)\Disc 1\11. Skyy - Superlove.wav

Pre-gap length 0:00:02.49

Peak level 96.6 %
Extraction speed 6.3 X
Track quality 99.9 %
Test CRC 8AF1A390
Copy CRC 8AF1A390
Track not present in AccurateRip database
Copy OK

Track 12

Filename F:\Music Place\FLAC & WAV\SKYY\Skyy - SkyyHigh-The Skyy Anthology 1979-1992 (2014)\Disc 1\12. Skyy - Take It Easy.wav

Pre-gap length 0:00:02.85

Peak level 96.6 %
Extraction speed 7.9 X
Track quality 100.0 %
Test CRC 7EC2F907
Copy CRC 7EC2F907
Track not present in AccurateRip database
Copy OK

Track 13

Filename F:\Music Place\FLAC & WAV\SKYY\Skyy - SkyyHigh-The Skyy Anthology 1979-1992 (2014)\Disc 1\13. Skyy - For The First Time.wav

Pre-gap length 0:00:02.29

Peak level 96.6 %
Extraction speed 7.9 X
Track quality 100.0 %
Test CRC 4B7C0A94
Copy CRC 4B7C0A94
Track not present in AccurateRip database
Copy OK

Track 14

Filename F:\Music Place\FLAC & WAV\SKYY\Skyy - SkyyHigh-The Skyy Anthology 1979-1992 (2014)\Disc 1\14. Skyy - No Music.wav

Pre-gap length 0:00:02.49

Peak level 96.6 %
Extraction speed 7.2 X
Track quality 100.0 %
Test CRC 52CECCF7
Copy CRC 52CECCF7
Track not present in AccurateRip database
Copy OK


None of the tracks are present in the AccurateRip database

No errors occurred

End of status report

–– CUETools DB Plugin V2.1.3

[CTDB TOCID: _KA7orZkvCsKaW6.V0FuOrX9nxQ-] found, Submit result: _KA7orZkvCsKaW6.V0FuOrX9nxQ- has been confirmed
[2e4d8cad] (1/1) Accurately ripped


==== Log checksum FAB169A0A4D98A3253BF97635BED5124D5DA705ED0BA5E598330C9D8977EFAA9 ====


Exact Audio Copy V1.0 beta 3 from 29. August 2011

EAC extraction logfile from 14. November 2014, 11:47

Skyy / Skyy High - The Skyy Anthology 1979-1992 (Disk Two)

Used drive : HP DVD Writer 1260t Adapter: 3 ID: 0

Read mode : Secure
Utilize accurate stream : Yes
Defeat audio cache : Yes
Make use of C2 pointers : No

Read offset correction : 6
Overread into Lead-In and Lead-Out : No
Fill up missing offset samples with silence : Yes
Delete leading and trailing silent blocks : No
Null samples used in CRC calculations : Yes
Used interface : Native Win32 interface for Win NT & 2000
Gap handling : Appended to previous track

Used output format : User Defined Encoder
Selected bitrate : 128 kBit/s
Quality : High
Add ID3 tag : No
Command line compressor : C:\Program Files (x86)\Exact Audio Copy\Flac\flac.exe
Additional command line options : -8 -V -T "ARTIST=%artist%" -T "TITLE=%title%" -T "ALBUM=%albumtitle%" -T "DATE=%year%" -T "TRACKNUMBER=%tracknr%" -T "GENRE=%genre%" -T "PERFORMER=%albuminterpret%" -T "COMPOSER=%composer%" %haslyrics%–tag-from-file=LYRICS="%lyricsfile%"%haslyrics% -T "ALBUMARTIST=%albumartist%" -T "DISCNUMBER=%cdnumber%" -T "TOTALDISCS=%totalcds%" -T "TOTALTRACKS=%numtracks%" -T "COMMENT=%comment%" %source% -o %dest%


TOC of the extracted CD

Track | Start | Length | Start sector | End sector
––––––––––––––––––––––––––––-
1 | 0:00.00 | 6:22.23 | 0 | 28672
2 | 6:22.23 | 7:07.30 | 28673 | 60727
3 | 13:29.53 | 3:39.14 | 60728 | 77166
4 | 17:08.67 | 4:27.68 | 77167 | 97259
5 | 21:36.60 | 4:57.64 | 97260 | 119598
6 | 26:34.49 | 5:47.36 | 119599 | 145659
7 | 32:22.10 | 6:14.66 | 145660 | 173775
8 | 38:37.01 | 5:54.56 | 173776 | 200381
9 | 44:31.57 | 5:16.33 | 200382 | 224114
10 | 49:48.15 | 8:14.40 | 224115 | 261204
11 | 58:02.55 | 6:03.59 | 261205 | 288488
12 | 64:06.39 | 4:47.43 | 288489 | 310056
13 | 68:54.07 | 5:12.52 | 310057 | 333508
14 | 74:06.59 | 4:40.17 | 333509 | 354525


Track 1

Filename F:\Music Place\FLAC & WAV\SKYY\Skyy - SkyyHigh-The Skyy Anthology 1979-1992 (2014)\Disc 2\01. Skyy - Call Me.wav

Pre-gap length 0:00:02.00

Peak level 96.6 %
Extraction speed 4.2 X
Track quality 100.0 %
Test CRC CE6A3A65
Copy CRC CE6A3A65
Track not present in AccurateRip database
Copy OK

Track 2

Filename F:\Music Place\FLAC & WAV\SKYY\Skyy - SkyyHigh-The Skyy Anthology 1979-1992 (2014)\Disc 2\02. Skyy - Let's Celebrate (12'' Version).wav

Pre-gap length 0:00:00.97

Peak level 96.6 %
Extraction speed 4.9 X
Track quality 100.0 %
Test CRC C20C3331
Copy CRC C20C3331
Track not present in AccurateRip database
Copy OK

Track 3

Filename F:\Music Place\FLAC & WAV\SKYY\Skyy - SkyyHigh-The Skyy Anthology 1979-1992 (2014)\Disc 2\03. Skyy - When You Touch Me.wav

Pre-gap length 0:00:00.34

Peak level 96.6 %
Extraction speed 4.9 X
Track quality 100.0 %
Test CRC A66790C4
Copy CRC A66790C4
Track not present in AccurateRip database
Copy OK

Track 4

Filename F:\Music Place\FLAC & WAV\SKYY\Skyy - SkyyHigh-The Skyy Anthology 1979-1992 (2014)\Disc 2\04. Skyy - Get Into The Beat.wav

Pre-gap length 0:00:01.34

Peak level 96.6 %
Extraction speed 4.3 X
Track quality 99.9 %
Test CRC 750E25EA
Copy CRC 750E25EA
Track not present in AccurateRip database
Copy OK

Track 5

Filename F:\Music Place\FLAC & WAV\SKYY\Skyy - SkyyHigh-The Skyy Anthology 1979-1992 (2014)\Disc 2\05. Skyy - Movin' Violation.wav

Pre-gap length 0:00:00.94

Peak level 87.8 %
Extraction speed 5.7 X
Track quality 100.0 %
Test CRC 40E76EE8
Copy CRC 40E76EE8
Track not present in AccurateRip database
Copy OK

Track 6

Filename F:\Music Place\FLAC & WAV\SKYY\Skyy - SkyyHigh-The Skyy Anthology 1979-1992 (2014)\Disc 2\06. Skyy - Let Love Shine (12'' Version).wav

Pre-gap length 0:00:00.48

Peak level 96.6 %
Extraction speed 6.1 X
Track quality 100.0 %
Test CRC 32FF2133
Copy CRC 32FF2133
Track not present in AccurateRip database
Copy OK

Track 7

Filename F:\Music Place\FLAC & WAV\SKYY\Skyy - SkyyHigh-The Skyy Anthology 1979-1992 (2014)\Disc 2\07. Skyy - Bad Boy (12'' Version).wav

Pre-gap length 0:00:00.76

Peak level 96.6 %
Extraction speed 6.5 X
Track quality 100.0 %
Test CRC 908CB8C5
Copy CRC 908CB8C5
Track not present in AccurateRip database
Copy OK

Track 8

Filename F:\Music Place\FLAC & WAV\SKYY\Skyy - SkyyHigh-The Skyy Anthology 1979-1992 (2014)\Disc 2\08. Skyy - Show Me The Way (12'' Version).wav

Pre-gap length 0:00:00.70

Peak level 96.6 %
Extraction speed 6.8 X
Track quality 100.0 %
Test CRC 90943926
Copy CRC 90943926
Track not present in AccurateRip database
Copy OK

Track 9

Filename F:\Music Place\FLAC & WAV\SKYY\Skyy - SkyyHigh-The Skyy Anthology 1979-1992 (2014)\Disc 2\09. Skyy - Dancin' To Be Dancin' (12'' Version).wav

Pre-gap length 0:00:00.56

Peak level 95.5 %
Extraction speed 7.1 X
Track quality 100.0 %
Test CRC D6B6C061
Copy CRC D6B6C061
Track not present in AccurateRip database
Copy OK

Track 10

Filename F:\Music Place\FLAC & WAV\SKYY\Skyy - SkyyHigh-The Skyy Anthology 1979-1992 (2014)\Disc 2\10. Skyy - Because Of You (12'' M&M Mix).wav

Pre-gap length 0:00:00.26

Peak level 96.6 %
Extraction speed 7.6 X
Track quality 100.0 %
Test CRC EB4683EC
Copy CRC EB4683EC
Track not present in AccurateRip database
Copy OK

Track 11

Filename F:\Music Place\FLAC & WAV\SKYY\Skyy - SkyyHigh-The Skyy Anthology 1979-1992 (2014)\Disc 2\11. Skyy - Givin' It (To You) (12'' Special Mix).wav

Pre-gap length 0:00:00.29

Peak level 93.7 %
Extraction speed 7.8 X
Track quality 100.0 %
Test CRC CDA2FA95
Copy CRC CDA2FA95
Track not present in AccurateRip database
Copy OK

Track 12

Filename F:\Music Place\FLAC & WAV\SKYY\Skyy - SkyyHigh-The Skyy Anthology 1979-1992 (2014)\Disc 2\12. Skyy - Start Of A Romance.wav

Pre-gap length 0:00:01.38

Peak level 96.6 %
Extraction speed 7.8 X
Track quality 100.0 %
Test CRC 57A05A5D
Copy CRC 57A05A5D
Track not present in AccurateRip database
Copy OK

Track 13

Filename F:\Music Place\FLAC & WAV\SKYY\Skyy - SkyyHigh-The Skyy Anthology 1979-1992 (2014)\Disc 2\13. Skyy - Real Love.wav

Pre-gap length 0:00:02.21

Peak level 96.6 %
Extraction speed 6.7 X
Track quality 99.9 %
Test CRC 7A70D887
Copy CRC 7A70D887
Track not present in AccurateRip database
Copy OK

Track 14

Filename F:\Music Place\FLAC & WAV\SKYY\Skyy - SkyyHigh-The Skyy Anthology 1979-1992 (2014)\Disc 2\14. Skyy - Up & Over (Stronger & Better).wav

Pre-gap length 0:00:01.98

Peak level 96.6 %
Extraction speed 6.8 X
Track quality 99.9 %
Test CRC 0C6AE9E5
Copy CRC 0C6AE9E5
Track not present in AccurateRip database
Copy OK


None of the tracks are present in the AccurateRip database

No errors occurred

End of status report

–– CUETools DB Plugin V2.1.3

[CTDB TOCID: .TfxIzaU94qLEeG_lkyCq8W5JtQ-] found, Submit result: .TfxIzaU94qLEeG_lkyCq8W5JtQ- has been confirmed
[1332c2dd] (1/1) Accurately ripped


==== Log checksum B9BC143445EEBAE0A94FE4AB5EB5C1D7AB63545C45856A4E8566436FC740C97F ====

Skyy - The Salsoul Albums (2023)