Subcategories

Slash - Slash (2010) [16 Tracks Edition] Re-Up

Posted By: Designol
Slash - Slash (2010) [16 Tracks Edition] Re-Up

Slash - Slash (2010) [16 Tracks]
EAC | FLAC | Image (Cue&Log) ~ 545 Mb | Mp3 (CBR320) ~ 202 Mb | Scans included
Genre: Rock, Hard Rock | Label: Selecta | # MBB20048 | Time: 01:08:50

2010 solo album from guitar-slinging Rock icon Slash (Guns n' Roses, Velvet Revolver). On this, his first solo album, Slash collaborates with a wide variety of vocalists and showcases his diverse, surprising and exciting personal side. Features appearances from Ozzy Osbourne, Ian Astbury, Fergie, Iggy Pop, Adam Levine, Chris Cornell, Dave Grohl and many others.

At first I laughed when I read that Slash had his 1st solo cd coming out. I had always considered the 2 Snakepit records to be his solo albums, but I guess he didn't. Then I read that "Slash" would feature different lead singers on each track and I knew I wouldn't like it. After seeing the list of guest vocalists, many of whom I'd heard of but never actually heard (like Andrew Stockdale and Adam Levine), I knew the album would be awful.

Boy was I wrong. From the opening riff of "Ghost," a track sung by Ian Astbury of the Cult (with rhythm guitars by Izzy), I realized this disc had some potential. After hearing it in its' entirety, I'm waaay impressed. This cd is the equivalent of putting your iPod on shuffle and hearing 14 really good and really different tunes.

Highlights include the aforementioned "Ghost," "Beautiful Dangerous" featuring Fergie, "By the Sword" (Adam Stockdale), "Gotten" (Adam Levine) and "Back to Cali"(Myles Kennedy. The only track that does nothing for me is "Saint is a Sinner Too" by Rocco de Luca. That one seems to go nowhere, but that's OK. It's surrounded by 13 other great rock songs that cover so much ground musically while still being full-on rock.

Review by Allister Fiend, Amazon.com

Slash - Slash (2010) [16 Tracks Edition] Re-Up

Slash - Slash (2010) [16 Tracks Edition] Re-Up



Tracklist:

01. Ghost (Ian Astbury) (03:35)
02. Crucify the Dead (Ozzy Osbourne) (04:04)
03. Beautiful Dangerous (Fergie) (04:38)
04. Back From Cali (Myles Kennedy) (03:34)
05. Promise (Chris Cornell) (04:36)
06. By the Sword (Andrew Stockdale) (04:47)
07. Gotten (Adam Levine) (05:02)
08. Doctor Alibi (Lemmy Kilmister) (03:08)
09. Watch This (Dave Grohl & Duff McKagan) (03:46)
10. I Hold On (Kid Rock) (04:12)
11. Nothing to Say (M Shadows) (05:23)
12. Starlight (Myles Kennedy) (05:24)
13. Saint Is a Sinner Too (Rocco Deluca) (03:27)
14. We're All Gonna Die (Iggy Pop) (04:32)
15. Paradise City (Fergie & Cypress Hill) (05:15)
16. Baby Can't Drive (Alice Cooper & Nicole Scherzinger) (03:19)


Exact Audio Copy V1.0 beta 3 from 29. August 2011

EAC extraction logfile from 18. April 2012, 22:31

Slash / Slash

Used drive : MATSHITADVD+-RW UJ890 Adapter: 1 ID: 0

Read mode : Secure
Utilize accurate stream : Yes
Defeat audio cache : Yes
Make use of C2 pointers : No

Read offset correction : 102
Overread into Lead-In and Lead-Out : No
Fill up missing offset samples with silence : Yes
Delete leading and trailing silent blocks : No
Null samples used in CRC calculations : Yes
Used interface : Native Win32 interface for Win NT & 2000

Used output format : User Defined Encoder
Selected bitrate : 128 kBit/s
Quality : High
Add ID3 tag : No
Command line compressor : C:\Program Files\FLAC\flac.exe
Additional command line options : -8 -V %source% -T "ARTIST=%albumartist%" -T "TITLE=%title%" -T "ALBUM=%albumtitle%" -T "DATE=%year%" -T "GENRE=%genre%"


TOC of the extracted CD

Track | Start | Length | Start sector | End sector
––––––––––––––––––––––––––––-
1 | 0:00.00 | 3:35.13 | 0 | 16137
2 | 3:35.13 | 4:04.08 | 16138 | 34445
3 | 7:39.21 | 4:38.40 | 34446 | 55335
4 | 12:17.61 | 3:34.51 | 55336 | 71436
5 | 15:52.37 | 4:36.14 | 71437 | 92150
6 | 20:28.51 | 4:47.70 | 92151 | 113745
7 | 25:16.46 | 5:02.13 | 113746 | 136408
8 | 30:18.59 | 3:08.65 | 136409 | 150573
9 | 33:27.49 | 3:46.68 | 150574 | 167591
10 | 37:14.42 | 4:12.42 | 167592 | 186533
11 | 41:27.09 | 5:23.53 | 186534 | 210811
12 | 46:50.62 | 5:24.68 | 210812 | 235179
13 | 52:15.55 | 3:27.13 | 235180 | 250717
14 | 55:42.68 | 4:32.33 | 250718 | 271150
15 | 60:15.26 | 5:15.18 | 271151 | 294793
16 | 65:30.44 | 3:19.68 | 294794 | 309786


Range status and errors

Selected range

Filename D:\2010 - Slash (Argentina Selecta MBB20048)\2010 - Slash (Argentina Selecta MBB20048).wav

Peak level 97.7 %
Extraction speed 2.2 X
Range quality 100.0 %
Test CRC 1615DD4B
Copy CRC 1615DD4B
Copy OK

No errors occurred


AccurateRip summary

Track 1 accurately ripped (confidence 3) [0D5ABA68] (AR v1)
Track 2 accurately ripped (confidence 4) [1F97206E] (AR v1)
Track 3 accurately ripped (confidence 4) [320BD778] (AR v1)
Track 4 accurately ripped (confidence 4) [B5BC5A16] (AR v1)
Track 5 accurately ripped (confidence 4) [B35D5D8A] (AR v1)
Track 6 accurately ripped (confidence 4) [CC4EA3BB] (AR v1)
Track 7 accurately ripped (confidence 4) [32C90109] (AR v1)
Track 8 accurately ripped (confidence 4) [EFA8C932] (AR v1)
Track 9 accurately ripped (confidence 4) [11191954] (AR v1)
Track 10 accurately ripped (confidence 4) [0E6DB190] (AR v1)
Track 11 accurately ripped (confidence 4) [CCBC7B29] (AR v1)
Track 12 accurately ripped (confidence 4) [F3F07D89] (AR v1)
Track 13 accurately ripped (confidence 4) [F6C444B6] (AR v1)
Track 14 accurately ripped (confidence 4) [9470F72A] (AR v1)
Track 15 accurately ripped (confidence 4) [AE868BAB] (AR v1)
Track 16 accurately ripped (confidence 4) [1D8AAC8C] (AR v1)

All tracks accurately ripped

End of status report

–– CUETools DB Plugin V2.1.3

[CTDB TOCID: L5XC2SYasxqBUuyGnHmhaw5vBeY-] disk not present in database, Submit result: L5XC2SYasxqBUuyGnHmhaw5vBeY- has been uploaded


==== Log checksum 6986AE51D9977CB37B09731DA3FBB45262ADCFB24CEC17142EC05E5B06167618 ====

foobar2000 1.2 / Dynamic Range Meter 1.1.1
log date: 2015-09-29 23:08:53

––––––––––––––––––––––––––––––––––––––––
Analyzed: Slash / Slash
––––––––––––––––––––––––––––––––––––––––

DR Peak RMS Duration Track
––––––––––––––––––––––––––––––––––––––––
DR6 -0.20 dB -8.07 dB 3:35 01-Ghost (Ian Astbury)
DR6 -0.21 dB -8.24 dB 4:04 02-Crucify the Dead (Ozzy Osbourne)
DR7 -0.20 dB -8.52 dB 4:39 03-Beautiful Dangerous (Fergie)
DR8 -0.20 dB -9.28 dB 3:35 04-Back From Cali (Myles Kennedy)
DR7 -0.20 dB -8.70 dB 4:36 05-Promise (Chris Cornell)
DR6 -0.20 dB -8.85 dB 4:48 06-By the Sword (Andrew Stockdale)
DR7 -0.21 dB -9.20 dB 5:02 07-Gotten (Adam Levine)
DR7 -0.20 dB -7.95 dB 3:09 08-Doctor Alibi (Lemmy Kilmister)
DR7 -0.20 dB -8.60 dB 3:47 09-Watch This (Dave Grohl & Duff McKagan)
DR8 -0.20 dB -9.07 dB 4:13 10-I Hold On (Kid Rock)
DR7 -0.20 dB -8.31 dB 5:24 11-Nothing to Say (M Shadows)
DR7 -0.20 dB -9.70 dB 5:25 12-Starlight (Myles Kennedy)
DR8 -0.20 dB -11.56 dB 3:27 13-Saint Is a Sinner Too (Rocco Deluca)
DR7 -0.20 dB -8.29 dB 4:32 14-We're All Gonna Die (Iggy Pop)
DR7 -0.20 dB -8.58 dB 5:15 15-Paradise City (Fergie & Cypress Hill)
DR7 -0.20 dB -8.24 dB 3:20 16-Baby Can't Drive (Alice Cooper & Nicole Scherzinger)
––––––––––––––––––––––––––––––––––––––––

Number of tracks: 16
Official DR value: DR7

Samplerate: 44100 Hz
Channels: 2
Bits per sample: 16
Bitrate: 1017 kbps
Codec: FLAC
================================================================================

Slash - Slash (2010) [16 Tracks Edition] Re-Up

Slash - Slash (2010) [16 Tracks Edition] Re-Up

All thanks to original releaser - matifale

More interesting music in My Blog