Tags
Language
Tags

Smokey Wilson - Smoke N' Fire (1993)

Posted By: gribovar
Smokey Wilson - Smoke N' Fire (1993)

Smokey Wilson - Smoke N' Fire (1993)
EAC Rip | FLAC (tracks+.cue+log) - 272 MB | MP3 CBR 320 kbps (LAME 3.93) - 115 MB | Covers - 11 MB
Genre: Blues | RAR 3% Rec. | Label: Bullseye Blues (CD BB 9534)

Transplanted Mississippian Smokey Wilson has made plenty of records, but usually for poorly distributed regional labels. So although he is far from a newcomer, he might as well be a fledgling rookie to the average listener. The songs, aside from the lyrically commendable but awkward "Don't Burn Down L.A.," are primarily his own urgent expositions on love, life's unfairness, and pain. His playing blends slamming fills, chunky riffs, and sonic barrages mixed with expert uses of distortion, bent notes, and flashy chords. This is the kind of no-nonsense set that has earned Rounder/Bullseye its exemplary reputation.
Tracklist:
01. Don't Burn Down L.A.
02. You Took Everything From Me
03. Smoke N' Fire
04. Tired Of Cryin'
05. 88th Street Blues
06. Killin' Floor
07. Tired Of Waiting On You
08. Nobody's Bid'Ness
09. I Didn't Know
10. Just Messin' Around
11. Why Don't You Let Me Be

Total time: 48:53

Exact Audio Copy V1.1 from 23. June 2015

EAC extraction logfile from 18. July 2020, 7:27

Smokey Wilson / Smoke N' Fire

Used drive : PIONEER DVD-RW DVR-219L Adapter: 1 ID: 0

Read mode : Secure
Utilize accurate stream : Yes
Defeat audio cache : Yes
Make use of C2 pointers : No

Read offset correction : 6
Overread into Lead-In and Lead-Out : No
Fill up missing offset samples with silence : Yes
Delete leading and trailing silent blocks : No
Null samples used in CRC calculations : Yes
Used interface : Native Win32 interface for Win NT & 2000
Gap handling : Appended to previous track

Used output format : User Defined Encoder
Selected bitrate : 768 kBit/s
Quality : High
Add ID3 tag : No
Command line compressor : C:\Install\Exact Audio Copy\FLAC\FLAC.EXE
Additional command line options : -6 -V -T "ARTIST=%artist%" -T "TITLE=%title%" -T "ALBUM=%albumtitle%" -T "DATE=%year%" -T "TRACKNUMBER=%tracknr%" -T "GENRE=%genre%" -T "COMMENT=%comment%" -T "BAND=%albuminterpret%" -T "ALBUMARTIST=%albuminterpret%" -T "COMPOSER=%composer%" %haslyrics%–tag-from-file=LYRICS="%lyricsfile%"%haslyrics% -T "DISCNUMBER=%cdnumber%" -T "TOTALDISCS=%totalcds%" -T "TOTALTRACKS=%numtracks%" %hascover%–picture="%coverfile%"%hascover% %source% -o %dest%


TOC of the extracted CD

Track | Start | Length | Start sector | End sector
––––––––––––––––––––––––––––-
1 | 0:00.00 | 3:36.00 | 0 | 16199
2 | 3:36.00 | 4:40.50 | 16200 | 37249
3 | 8:16.50 | 3:52.60 | 37250 | 54709
4 | 12:09.35 | 3:39.15 | 54710 | 71149
5 | 15:48.50 | 6:25.00 | 71150 | 100024
6 | 22:13.50 | 5:38.02 | 100025 | 125376
7 | 27:51.52 | 3:10.15 | 125377 | 139641
8 | 31:01.67 | 4:11.55 | 139642 | 158521
9 | 35:13.47 | 4:21.48 | 158522 | 178144
10 | 39:35.20 | 4:15.70 | 178145 | 197339
11 | 43:51.15 | 5:02.10 | 197340 | 219999


Track 1

Filename E:\alexbras\1993 Smokey Wilson - Smoke N' Fire\01. Don't Burn Down L.A..wav

Pre-gap length 0:00:02.00

Peak level 100.0 %
Extraction speed 2.4 X
Track quality 100.0 %
Test CRC 35CC42A8
Copy CRC 35CC42A8
Accurately ripped (confidence 2) [029E3FB5] (AR v2)
Copy OK

Track 2

Filename E:\alexbras\1993 Smokey Wilson - Smoke N' Fire\02. You Took Everything From Me.wav

Pre-gap length 0:00:01.53

Peak level 89.8 %
Extraction speed 2.6 X
Track quality 100.0 %
Test CRC 7B003DB8
Copy CRC 7B003DB8
Accurately ripped (confidence 2) [B0AF66C6] (AR v2)
Copy OK

Track 3

Filename E:\alexbras\1993 Smokey Wilson - Smoke N' Fire\03. Smoke n' Fire.wav

Pre-gap length 0:00:01.40

Peak level 100.0 %
Extraction speed 2.5 X
Track quality 100.0 %
Test CRC 67A35F97
Copy CRC 67A35F97
Accurately ripped (confidence 2) [D2BA9CC8] (AR v2)
Copy OK

Track 4

Filename E:\alexbras\1993 Smokey Wilson - Smoke N' Fire\04. Tired of Cryin'.wav

Pre-gap length 0:00:01.46

Peak level 100.0 %
Extraction speed 2.4 X
Track quality 100.0 %
Test CRC EC560E84
Copy CRC EC560E84
Accurately ripped (confidence 2) [01EAA0C1] (AR v2)
Copy OK

Track 5

Filename E:\alexbras\1993 Smokey Wilson - Smoke N' Fire\05. 88th Street Blues.wav

Pre-gap length 0:00:01.17

Peak level 100.0 %
Extraction speed 2.6 X
Track quality 100.0 %
Test CRC B5B72E51
Copy CRC B5B72E51
Accurately ripped (confidence 2) [A48AEF6B] (AR v2)
Copy OK

Track 6

Filename E:\alexbras\1993 Smokey Wilson - Smoke N' Fire\06. Killin' Floor.wav

Pre-gap length 0:00:02.93

Peak level 97.7 %
Extraction speed 2.4 X
Track quality 100.0 %
Test CRC 686E87EE
Copy CRC 686E87EE
Accurately ripped (confidence 2) [377919F3] (AR v2)
Copy OK

Track 7

Filename E:\alexbras\1993 Smokey Wilson - Smoke N' Fire\07. Tired of Waiting on You.wav

Pre-gap length 0:00:01.22

Peak level 97.7 %
Extraction speed 2.0 X
Track quality 99.9 %
Test CRC 8B2FDE3F
Copy CRC 8B2FDE3F
Accurately ripped (confidence 2) [F48DB8E8] (AR v2)
Copy OK

Track 8

Filename E:\alexbras\1993 Smokey Wilson - Smoke N' Fire\08. Nobody's Bid'Ness.wav

Pre-gap length 0:00:01.20

Peak level 97.7 %
Extraction speed 2.4 X
Track quality 100.0 %
Test CRC 8CB81617
Copy CRC 8CB81617
Accurately ripped (confidence 2) [FCCF22BE] (AR v2)
Copy OK

Track 9

Filename E:\alexbras\1993 Smokey Wilson - Smoke N' Fire\09. I Didn't Know.wav

Pre-gap length 0:00:01.29

Peak level 83.8 %
Extraction speed 2.4 X
Track quality 100.0 %
Test CRC 47CB233C
Copy CRC 47CB233C
Accurately ripped (confidence 2) [9836200E] (AR v2)
Copy OK

Track 10

Filename E:\alexbras\1993 Smokey Wilson - Smoke N' Fire\10. Just Messin' Around.wav

Pre-gap length 0:00:01.37

Peak level 97.7 %
Extraction speed 2.2 X
Track quality 99.9 %
Test CRC 1D729C97
Copy CRC 1D729C97
Accurately ripped (confidence 2) [AAB52AD8] (AR v2)
Copy OK

Track 11

Filename E:\alexbras\1993 Smokey Wilson - Smoke N' Fire\11. Why Don't You Let Me Be.wav

Pre-gap length 0:00:02.93

Peak level 97.7 %
Extraction speed 2.3 X
Track quality 99.9 %
Test CRC 758229CD
Copy CRC 758229CD
Accurately ripped (confidence 2) [4CCB0D81] (AR v2)
Copy OK


All tracks accurately ripped

No errors occurred

End of status report

–– CUETools DB Plugin V2.1.6

[CTDB TOCID: Bok4nXT0F1u7.5TuC3cF8h9FrmM-] found
Submit result: Bok4nXT0F1u7.5TuC3cF8h9FrmM- has been confirmed
Track | CTDB Status
1 | (7/7) Accurately ripped
2 | (7/7) Accurately ripped
3 | (7/7) Accurately ripped
4 | (7/7) Accurately ripped
5 | (7/7) Accurately ripped
6 | (7/7) Accurately ripped
7 | (7/7) Accurately ripped
8 | (7/7) Accurately ripped
9 | (7/7) Accurately ripped
10 | (7/7) Accurately ripped
11 | (7/7) Accurately ripped


==== Log checksum 70C14F4CFAE05FA59BBE532F54A05615262BBBAEE86EAFB789ADDE6D8C8CF57A ====

[CUETools log; Date: 22.07.2020 16:45:05; Version: 2.1.4]
[CTDB TOCID: Bok4nXT0F1u7.5TuC3cF8h9FrmM-] found.
Track | CTDB Status
1 | (9/9) Accurately ripped
2 | (9/9) Accurately ripped
3 | (9/9) Accurately ripped
4 | (9/9) Accurately ripped
5 | (9/9) Accurately ripped
6 | (9/9) Accurately ripped
7 | (9/9) Accurately ripped
8 | (9/9) Accurately ripped
9 | (9/9) Accurately ripped
10 | (9/9) Accurately ripped
11 | (9/9) Accurately ripped
[AccurateRip ID: 0013cfb9-00acebca-940b750b] found.
Track [ CRC | V2 ] Status
01 [4704395c|029e3fb5] (00+02/14) Accurately ripped
02 [bdc66cea|b0af66c6] (00+02/14) Accurately ripped
03 [228ff422|d2ba9cc8] (00+02/14) Accurately ripped
04 [e7504e15|01eaa0c1] (00+02/14) Accurately ripped
05 [5c88d39b|a48aef6b] (00+02/14) Accurately ripped
06 [11daf719|377919f3] (00+02/14) Accurately ripped
07 [2b210c15|f48db8e8] (00+02/14) Accurately ripped
08 [c8c715b7|fccf22be] (00+02/14) Accurately ripped
09 [713cca2e|9836200e] (00+02/14) Accurately ripped
10 [3c659598|aab52ad8] (00+02/14) Accurately ripped
11 [30fbc4e5|4ccb0d81] (00+02/14) Accurately ripped
Offsetted by 982:
01 [a3446e48] (04/14) Accurately ripped
02 [883fd8a1] (04/14) Accurately ripped
03 [1bf3ad9e] (04/14) Accurately ripped
04 [fb3a9d4b] (04/14) Accurately ripped
05 [3e609dd8] (04/14) Accurately ripped
06 [6e19ca47] (04/14) Accurately ripped
07 [dbc7526f] (04/14) Accurately ripped
08 [8dbeca4f] (04/14) Accurately ripped
09 [89f2fb1d] (04/14) Accurately ripped
10 [81c8d4af] (04/14) Accurately ripped
11 [c5bbfd21] (04/14) Accurately ripped

Track Peak [ CRC32 ] [W/O NULL] [ LOG ]
– 100,0 [A6FF4A20] [C21F6FF3]
01 100,0 [35CC42A8] [6A1EDB7C] CRC32
02 89,8 [7B003DB8] [A6051337] CRC32
03 100,0 [67A35F97] [B7DF8E07] CRC32
04 100,0 [EC560E84] [478228BA] CRC32
05 100,0 [B5B72E51] [FCE4A304] CRC32
06 97,7 [686E87EE] [AAE32701] CRC32
07 97,7 [8B2FDE3F] [C82466AC] CRC32
08 97,7 [8CB81617] [8B124B6D] CRC32
09 83,8 [47CB233C] [CCC5592F] CRC32
10 97,7 [1D729C97] [CD4197BA] CRC32
11 97,7 [758229CD] [4810AA3C] CRC32

Thanks to pazanenok

See also:
Smokey Wilson - The Man From Mars (1997)