Tags
Language
Tags

Sophie Yates - French Harpsichord Music: D'Anglebert, Rameau, Couperin, Forqueray (1993)

Posted By: ArlegZ
Sophie Yates - French Harpsichord Music: D'Anglebert, Rameau, Couperin, Forqueray (1993)

Sophie Yates - French Harpsichord Music: D'Anglebert, Rameau, Couperin, Forqueray (1993)
EAC | FLAC | Image (Cue & Log) ~ 391 Mb | Total time: 71:21 | Digital booklet
Classical | Label: Chandos | # CHAN 0545 | Recorded: 1992

Sophie Yates began her career by winning the international Erwin Bodky Competition at the Boston Early Music Festival, and as a result she was invited to tour and broadcast throughout the eastern states of America. She now performs regularly around Europe, the United States and Japan, and has also worked in Syria, Morocco and Western Australia. Known for her affinity with the French baroque, the music of the Iberian Peninsula and English virginals music, she has performed on most of the playable virginals surviving in Britain and is working on a long-term project to collect a book of contemporary English pieces for this instrument.

Performer:
Sophie Yates, harpsichord

Track List:
Jean-Henri d'Anglebert (1635-1691)
Deuxieme Suite from Pieces de Clavecin
01. Prelude
02. Allemande
03. Courante I
04. Courante II
05. Sarabande
06. Gigue
07. Gallarde
08. Passacaille
Jean-Philippe Rameau (1683-1764)
09. L'Enharmonique
10. L'Egyptienne
11. La Dauphine
François Couperin (1668-1733)
12. Second Prelude from L'Art de toucher le Clavecin
13. Seconde Courante
14. Sarabande la Prude
15. Les Idees heureuses
16. La Voluptueuse
Jean-Baptiste Forqueray(1699-1782)
Movements from Cinquieme Suite
17. La Rameau
18. La Boisson
19. La Sylva
20. Jupiter
Jean-Henri d'Anglebert
21. Tombeau de Monsieur de Chambonnieres


Exact Audio Copy V1.3 from 2. September 2016

EAC extraction logfile from 15. June 2019, 17:50

Sophie Yates / French Baroque Harpsichord

Used drive : HL-DT-STDVDRAM GP65NW60 Adapter: 1 ID: 0

Read mode : Secure
Utilize accurate stream : Yes
Defeat audio cache : Yes
Make use of C2 pointers : No

Read offset correction : 6
Overread into Lead-In and Lead-Out : No
Fill up missing offset samples with silence : Yes
Delete leading and trailing silent blocks : No
Null samples used in CRC calculations : Yes
Used interface : Native Win32 interface for Win NT & 2000

Used output format : User Defined Encoder
Selected bitrate : 1024 kBit/s
Quality : High
Add ID3 tag : No
Command line compressor : C:\Program Files (x86)\Exact Audio Copy\FLAC\FLAC.EXE
Additional command line options : -6 -V -T "ARTIST=%artist%" -T "TITLE=%title%" -T "ALBUM=%albumtitle%" -T "DATE=%year%" -T "TRACKNUMBER=%tracknr%" -T "GENRE=%genre%" -T "COMMENT=%comment%" -T "BAND=%albuminterpret%" -T "ALBUMARTIST=%albuminterpret%" -T "COMPOSER=%composer%" %haslyrics%–tag-from-file=LYRICS="%lyricsfile%"%haslyrics% -T "DISCNUMBER=%cdnumber%" -T "TOTALDISCS=%totalcds%" -T "TOTALTRACKS=%numtracks%" %hascover%–picture="%coverfile%"%hascover% %source% -o %dest%


TOC of the extracted CD

Track | Start | Length | Start sector | End sector
––––––––––––––––––––––––––––-
1 | 0:00.00 | 1:55.40 | 0 | 8664
2 | 1:55.40 | 3:10.47 | 8665 | 22961
3 | 5:06.12 | 1:41.38 | 22962 | 30574
4 | 6:47.50 | 2:03.15 | 30575 | 39814
5 | 8:50.65 | 2:23.65 | 39815 | 50604
6 | 11:14.55 | 2:23.70 | 50605 | 61399
7 | 13:38.50 | 3:17.00 | 61400 | 76174
8 | 16:55.50 | 6:10.07 | 76175 | 103931
9 | 23:05.57 | 6:05.43 | 103932 | 131349
10 | 29:11.25 | 2:48.17 | 131350 | 143966
11 | 31:59.42 | 2:57.35 | 143967 | 157276
12 | 34:57.02 | 1:20.45 | 157277 | 163321
13 | 36:17.47 | 2:10.13 | 163322 | 173084
14 | 38:27.60 | 2:08.65 | 173085 | 182749
15 | 40:36.50 | 5:24.17 | 182750 | 207066
16 | 46:00.67 | 3:07.73 | 207067 | 221164
17 | 49:08.65 | 3:54.50 | 221165 | 238764
18 | 53:03.40 | 4:38.55 | 238765 | 259669
19 | 57:42.20 | 5:00.57 | 259670 | 282226
20 | 62:43.02 | 4:13.63 | 282227 | 301264
21 | 66:56.65 | 4:23.72 | 301265 | 321061


Range status and errors

Selected range

Filename C:\Users\Grant\Desktop\Sophie Yates - French Baroque Harpsichord.wav

Peak level 26.9 %
Extraction speed 2.3 X
Range quality 99.9 %
Test CRC 4A7D03FE
Copy CRC 4A7D03FE
Copy OK

No errors occurred


AccurateRip summary

Track 1 cannot be verified as accurate (confidence 6) [6F7457DA], AccurateRip returned [EA3C3E6A] (AR v2)
Track 2 cannot be verified as accurate (confidence 6) [7A816A55], AccurateRip returned [620C322B] (AR v2)
Track 3 cannot be verified as accurate (confidence 6) [693F5161], AccurateRip returned [49DE74CB] (AR v2)
Track 4 cannot be verified as accurate (confidence 6) [DD153CEA], AccurateRip returned [2A17E1BA] (AR v2)
Track 5 cannot be verified as accurate (confidence 6) [27C406D2], AccurateRip returned [5B46C7F5] (AR v2)
Track 6 cannot be verified as accurate (confidence 6) [B4AB476C], AccurateRip returned [BFAB1635] (AR v2)
Track 7 cannot be verified as accurate (confidence 6) [88EA756E], AccurateRip returned [90D01385] (AR v2)
Track 8 cannot be verified as accurate (confidence 6) [36E37F93], AccurateRip returned [3F0C9FD9] (AR v2)
Track 9 cannot be verified as accurate (confidence 6) [CD77BAEE], AccurateRip returned [25C94E58] (AR v2)
Track 10 cannot be verified as accurate (confidence 6) [2905F1A7], AccurateRip returned [E8C94521] (AR v2)
Track 11 cannot be verified as accurate (confidence 6) [D550995F], AccurateRip returned [966AC742] (AR v2)
Track 12 cannot be verified as accurate (confidence 6) [BD042DEE], AccurateRip returned [9144C466] (AR v2)
Track 13 cannot be verified as accurate (confidence 6) [B307CF24], AccurateRip returned [6B50FA80] (AR v2)
Track 14 cannot be verified as accurate (confidence 6) [5C7DD6FB], AccurateRip returned [388E8060] (AR v2)
Track 15 cannot be verified as accurate (confidence 6) [6E8E61FF], AccurateRip returned [9A6B661D] (AR v2)
Track 16 cannot be verified as accurate (confidence 6) [CBDFCD29], AccurateRip returned [AD597345] (AR v2)
Track 17 cannot be verified as accurate (confidence 6) [AEFABC72], AccurateRip returned [F4282EC9] (AR v2)
Track 18 cannot be verified as accurate (confidence 6) [E85A9D0D], AccurateRip returned [8DD2ED41] (AR v2)
Track 19 cannot be verified as accurate (confidence 6) [A87968A5], AccurateRip returned [6101DFEF] (AR v2)
Track 20 cannot be verified as accurate (confidence 6) [D1E64424], AccurateRip returned [522FBB86] (AR v2)
Track 21 cannot be verified as accurate (confidence 6) [177C01B1], AccurateRip returned [8EAAA022] (AR v2)

No tracks could be verified as accurate
You may have a different pressing from the one(s) in the database

End of status report

–– CUETools DB Plugin V2.1.6

[CTDB TOCID: ffxdSbuyg1dFjjoeaCQMNU5hvNM-] found
Submit result: ffxdSbuyg1dFjjoeaCQMNU5hvNM- has been confirmed
Track | CTDB Status
1 | (15/15) Accurately ripped
2 | (14/15) Accurately ripped
3 | (14/15) Accurately ripped
4 | (14/15) Accurately ripped
5 | (14/15) Accurately ripped
6 | (14/15) Accurately ripped
7 | (14/15) Accurately ripped
8 | (14/15) Accurately ripped
9 | (14/15) Accurately ripped
10 | (14/15) Accurately ripped
11 | (14/15) Accurately ripped
12 | (14/15) Accurately ripped
13 | (14/15) Accurately ripped
14 | (14/15) Accurately ripped
15 | (14/15) Accurately ripped
16 | (14/15) Accurately ripped
17 | (14/15) Accurately ripped
18 | (14/15) Accurately ripped
19 | (14/15) Accurately ripped
20 | (14/15) Accurately ripped
21 | (14/15) Accurately ripped


==== Log checksum 7E5330E1C8B6DC540FBDCB409199B0B0FD8BDAFC695BAC6867BD105F8D49F41C ====

Sophie Yates - French Harpsichord Music: D'Anglebert, Rameau, Couperin, Forqueray (1993)

Thanks to the original releaser