Tags
Language
Tags

Special EFX - Global Village (1992) {GRP}

Posted By: tiburon
Special EFX - Global Village (1992) {GRP}

Special EFX - Global Village (1992) {GRP}
EAC 0.99pb5 | FLAC tracks level 8 | Cue+Log+M3U | Full Scans 300dpi | 367MB + 5% Recovery
MP3 CBR 320 Kbps | 142MB + 5% Recovery
Genre: Crossover Jazz, World Fusion

Their most popular release, with the radio hits, "Daybreak", and "Your Love Has Lifted Me". Setting the pace for what was to become a revolution in contemporary jazz radio, this landmark release continues to explore the cutting edge of instrumental pop!
Track List
01. Daybreak - 5:42
02. Ozone Alert - 5:28
03. Serenity - 6:45
04. Freedon Flight - 5:25
05. Sunshine Thru The Rain - 5:10
06. Your Love Has Lifted Me - 4:05
07. Gobal Village - 5:14
08. Santa Barbara Beach - 4:11
09. The Last Dance - 4:58
10. Forever - 7:54

musicians
Chieli Minucci - Electric And Acoustic Guitars, Synthesizers, Vocals
George Jinda - Percussion, Shakers, African Shakers, Cymbals, Bongos, Udu drum, Tambourines, Timbalitos, Shakere, Crotales, Bells…
Bob Mintzer - Tenor & Soprano Saxophones
Kenny Werner - Synthesizers, Hammond B-3 Organ, Acoustic Piano
Steve Skinner - Keyboards
Gerald Veasley - Bass
Ferenando Sauders - Bass, Vocals
Lionel Cordew - Drums
Mark Ledford - Vocals

{b]Produced by Chieli Minucci and George Jinda


Exact Audio Copy V0.99 prebeta 5 from 4. May 2009

EAC extraction logfile from 23. June 2009, 14:28

Special EFX / Global Village

Used drive : HL-DT-STDVD-RAM GSA-H55N Adapter: 0 ID: 2

Read mode : Secure
Utilize accurate stream : Yes
Defeat audio cache : Yes
Make use of C2 pointers : No

Read offset correction : 102
Overread into Lead-In and Lead-Out : No
Fill up missing offset samples with silence : Yes
Delete leading and trailing silent blocks : No
Null samples used in CRC calculations : Yes
Used interface : Installed external ASPI interface
Gap handling : Appended to previous track

Used output format : User Defined Encoder
Selected bitrate : 128 kBit/s
Quality : High
Add ID3 tag : No
Command line compressor : G:\Program Files\Exact Audio Copy\Encoder\wavpack.exe
Additional command line options : -hm -w "Genre=%m" -w "Artist=%a" -w "Title=%t" -w "Album=%g" -w "Year=%y" -w "Tracknumber=%n" -w "Comment=EACpb5 -hm" %s %d


TOC of the extracted CD

Track | Start | Length | Start sector | End sector
––––––––––––––––––––––––––––-
1 | 0:00.00 | 5:42.00 | 0 | 25649
2 | 5:42.00 | 5:30.67 | 25650 | 50466
3 | 11:12.67 | 6:45.45 | 50467 | 80886
4 | 17:58.37 | 5:25.10 | 80887 | 105271
5 | 23:23.47 | 5:11.60 | 105272 | 128656
6 | 28:35.32 | 4:06.53 | 128657 | 147159
7 | 32:42.10 | 5:14.17 | 147160 | 170726
8 | 37:56.27 | 4:11.60 | 170727 | 189611
9 | 42:08.12 | 4:57.45 | 189612 | 211931
10 | 47:05.57 | 7:47.13 | 211932 | 246969


Track 1

Filename F:\WAV\01 - Daybreak.wav

Pre-gap length 0:00:02.00

Peak level 99.8 %
Track quality 100.0 %
Test CRC 1EF2382F
Copy CRC 1EF2382F
Accurately ripped (confidence 2) [F5092D4F]
Copy OK

Track 2

Filename F:\WAV\02 - Ozone Alert.wav

Peak level 99.8 %
Track quality 100.0 %
Test CRC 2729E7A0
Copy CRC 2729E7A0
Accurately ripped (confidence 2) [EDC7F68C]
Copy OK

Track 3

Filename F:\WAV\03 - Serenity.wav

Peak level 99.8 %
Track quality 100.0 %
Test CRC 06B00C63
Copy CRC 06B00C63
Accurately ripped (confidence 2) [310E0D24]
Copy OK

Track 4

Filename F:\WAV\04 - Freedom Flight.wav

Peak level 99.8 %
Track quality 100.0 %
Test CRC 173BCA0F
Copy CRC 173BCA0F
Accurately ripped (confidence 2) [67D33D49]
Copy OK

Track 5

Filename F:\WAV\05 - Sunshine Thru The Rain.wav

Peak level 99.8 %
Track quality 99.9 %
Test CRC 31D507F0
Copy CRC 31D507F0
Accurately ripped (confidence 2) [977F02F8]
Copy OK

Track 6

Filename F:\WAV\06 - Your Love Has Lifted Me.wav

Peak level 99.8 %
Track quality 99.9 %
Test CRC BA31C2F1
Copy CRC BA31C2F1
Accurately ripped (confidence 2) [26159524]
Copy OK

Track 7

Filename F:\WAV\07 - Global Village.wav

Peak level 99.8 %
Track quality 100.0 %
Test CRC 785883E3
Copy CRC 785883E3
Track not present in AccurateRip database
Copy OK

Track 8

Filename F:\WAV\08 - Santa Barbara Beach.wav

Peak level 99.8 %
Track quality 100.0 %
Test CRC 40BE8461
Copy CRC 40BE8461
Accurately ripped (confidence 2) [2A4DBC0F]
Copy OK

Track 9

Filename F:\WAV\09 - The Last Dance.wav

Peak level 99.8 %
Track quality 100.0 %
Test CRC 9FFC29AC
Copy CRC 9FFC29AC
Accurately ripped (confidence 2) [A9FECB35]
Copy OK

Track 10

Filename F:\WAV\10 - Forever.wav

Peak level 99.8 %
Track quality 100.0 %
Test CRC 5CE392BF
Copy CRC 5CE392BF
Accurately ripped (confidence 2) [E8CE7534]
Copy OK


9 track(s) accurately ripped
1 track(s) not present in the AccurateRip database

Some tracks could not be verified as accurate

No errors occurred

End of status report

Special EFX - Global Village (1992) {GRP}
Special EFX - Global Village (1992) {GRP}


Thanks to the original ripper