Tags
Language
Tags

Special EFX - Here To Stay (1997) {JVC}

Posted By: tiburon
Special EFX - Here To Stay (1997) {JVC}

Special EFX - Here To Stay (1997) {JVC}
EAC 0.99pb4 | FLAC tracks level 8 | Cue+Log+M3U | Full Scans 300dpi | 370MB + 5% Recovery
MP3 CBR 320 Kbps | 136MB + 5% Recovery
Genre: Smooth Jazz
Special EFX - Here To Stay (1997) {JVC}

George Jinda must have forgotten he was doing his latest Special EFX project, because his use of an all-star cast on Here to Stay might be better suited to one of those Fantasy Band discs he was involved in before his debilitating stroke. Not that there's anything sonically wrong with the mainly mellow fare on this disc – Mark Whitfield, Chuck Loeb, and Gerald Veasley do stellar jobs conveying the melodic thoughts over Jinda's gentle percussion.
Track List
01. Nine Lives Of The Cat 5:22
02. Heavenly Delight (Your Face) 5:00
03. Here To Stay 5:27
04. Since You've Been Away 5:04
05. Lights Out 4:53
06. Unfinished Business 5:01
07. Lucky Seven 4:56
08. New Passage 4:50
09. Who's Smiling Now 4:46
10. The Real Deal 4:52
11. Brave New World 5:07

musicians
George Jinda - percussion, cymbals
Warren Hill - alto sax
Mark Johnson - sax, keyboards
Chuck Loeb - guitar
Fernando Saunders - vocals on tracks 4, 5, 8
Gerald Veasley - bass
Mark Whitfield - guitar
Scott Brown - keyboards
Ben Butler - guitar
Kirk Lyons - bass
Nathaniel Townsley III - drums

Produced by George Jinda, Paul Wickliffe and Mark Johnson


Exact Audio Copy V0.99 prebeta 4 from 23. January 2008

EAC extraction logfile from 15. April 2009, 13:35

Special EFX / Here To Stay

Used drive : PLEXTOR CD-R PREMIUM2 Adapter: 1 ID: 1

Read mode : Secure
Utilize accurate stream : Yes
Defeat audio cache : Yes
Make use of C2 pointers : No

Read offset correction : 30
Overread into Lead-In and Lead-Out : Yes
Fill up missing offset samples with silence : Yes
Delete leading and trailing silent blocks : No
Null samples used in CRC calculations : Yes
Used interface : Installed external ASPI interface
Gap handling : Appended to previous track

Used output format : User Defined Encoder
Selected bitrate : 32 kBit/s
Quality : High
Add ID3 tag : No
Command line compressor : C:\Programmi\FLAC\flac.exe
Additional command line options : -8 -V -T "ARTIST=%a" -T "TITLE=%t" -T "ALBUM=%g" -T "DATE=%y" -T "TRACKNUMBER=%n" -T "GENRE=%m" -T "COMMENT=EAC FLAC -8" %s


TOC of the extracted CD

Track | Start | Length | Start sector | End sector
––––––––––––––––––––––––––––-
1 | 0:00.00 | 5:23.30 | 0 | 24254
2 | 5:23.30 | 5:00.40 | 24255 | 46794
3 | 10:23.70 | 5:27.57 | 46795 | 71376
4 | 15:51.52 | 5:04.33 | 71377 | 94209
5 | 20:56.10 | 4:53.00 | 94210 | 116184
6 | 25:49.10 | 5:01.00 | 116185 | 138759
7 | 30:50.10 | 4:56.07 | 138760 | 160966
8 | 35:46.17 | 4:50.13 | 160967 | 182729
9 | 40:36.30 | 4:46.17 | 182730 | 204196
10 | 45:22.47 | 4:52.08 | 204197 | 226104
11 | 50:14.55 | 5:08.35 | 226105 | 249239


Track 1

Filename D:\My Rip\01 - Nine Lives Of The Cat.wav

Pre-gap length 0:00:02.00

Peak level 99.8 %
Track quality 99.9 %
Test CRC 86F43A96
Copy CRC 86F43A96
Accurately ripped (confidence 6) [6B36451A]
Copy OK

Track 2

Filename D:\My Rip\02 - Heavenly Delight (Your Face).wav

Peak level 99.8 %
Track quality 100.0 %
Test CRC 1F97A007
Copy CRC 1F97A007
Accurately ripped (confidence 6) [65E7F964]
Copy OK

Track 3

Filename D:\My Rip\03 - Here To Stay.wav

Peak level 99.8 %
Track quality 99.9 %
Test CRC C6BDDDB6
Copy CRC C6BDDDB6
Accurately ripped (confidence 6) [A1C7C914]
Copy OK

Track 4

Filename D:\My Rip\04 - Since You've Been Away.wav

Peak level 99.8 %
Track quality 100.0 %
Test CRC C888F4EF
Copy CRC C888F4EF
Accurately ripped (confidence 6) [6B24B4F8]
Copy OK

Track 5

Filename D:\My Rip\05 - Lights Out.wav

Peak level 99.8 %
Track quality 100.0 %
Test CRC E0D92B90
Copy CRC E0D92B90
Accurately ripped (confidence 6) [C6ECDBBF]
Copy OK

Track 6

Filename D:\My Rip\06 - Unfinished Business.wav

Peak level 99.8 %
Track quality 100.0 %
Test CRC 2DA27471
Copy CRC 2DA27471
Accurately ripped (confidence 6) [5F6539A3]
Copy OK

Track 7

Filename D:\My Rip\07 - Lucky Seven.wav

Peak level 99.8 %
Track quality 100.0 %
Test CRC 5AB81000
Copy CRC 5AB81000
Accurately ripped (confidence 6) [4D85120A]
Copy OK

Track 8

Filename D:\My Rip\08 - New Passage.wav

Peak level 99.8 %
Track quality 100.0 %
Test CRC A1E1581F
Copy CRC A1E1581F
Accurately ripped (confidence 6) [C0D915F1]
Copy OK

Track 9

Filename D:\My Rip\09 - Who's Smiling Now.wav

Peak level 99.8 %
Track quality 99.9 %
Test CRC C530578D
Copy CRC C530578D
Accurately ripped (confidence 6) [4530135A]
Copy OK

Track 10

Filename D:\My Rip\10 - The Real Deal.wav

Peak level 99.8 %
Track quality 100.0 %
Test CRC 77065C19
Copy CRC 77065C19
Accurately ripped (confidence 6) [5469A059]
Copy OK

Track 11

Filename D:\My Rip\11 - Brave New World.wav

Peak level 99.8 %
Track quality 99.9 %
Test CRC 2C44A41A
Copy CRC 2C44A41A
Accurately ripped (confidence 6) [A9DAA4E1]
Copy OK


All tracks accurately ripped

No errors occurred

End of status report


––––––––––––––––––––––––––––––––––––––––
Analyzed: Special EFX / Here To Stay
––––––––––––––––––––––––––––––––––––––––

DR Peak RMS Duration Track
––––––––––––––––––––––––––––––––––––––––
DR11 -0.01 dB -11.78 dB 5:23 01-Nine Lives Of The Cat
DR11 -0.01 dB -12.45 dB 5:01 02-Heavenly Delight (Your Face)
DR11 -0.01 dB -12.31 dB 5:28 03-Here To Stay
DR10 -0.01 dB -11.14 dB 5:04 04-Since You've Been Away
DR12 -0.01 dB -13.40 dB 4:53 05-Lights Out
DR10 -0.01 dB -11.33 dB 5:01 06-Unfinished Business
DR10 -0.01 dB -11.43 dB 4:56 07-Lucky Seven
DR11 -0.01 dB -11.39 dB 4:50 08-New Passage
DR12 -0.01 dB -12.75 dB 4:46 09-Who's Smiling Now
DR9 -0.01 dB -10.06 dB 4:52 10-The Real Deal
DR10 -0.01 dB -10.99 dB 5:08 11-Brave New World
––––––––––––––––––––––––––––––––––––––––

Number of tracks: 11
Official DR value: DR11

Samplerate: 44100 Hz
Channels: 2
Bits per sample: 16
Bitrate: 829 kbps
Codec: FLAC
================================================================================

Special EFX - Here To Stay (1997) {JVC}
Special EFX - Here To Stay (1997) {JVC}
Special EFX - Here To Stay (1997) {JVC}


Thanks to the original ripper