Subcategories

Stan Getz & Joao Gilberto - The Carnegie Hall Concert (1964) [1991 Reissue]

Posted By: jclane
Stan Getz & Joao Gilberto - The Carnegie Hall Concert (1964) [1991 Reissue]

Stan Getz & Joao Gilberto - The Carnegie Hall Concert (1964) [1991 Reissue]
EAC Rip | FLAC Tracks + Cue + Log | 281 MB | Complete Scans | 8.3 MB
MP3 CBR @320 kbps (LAME 3.99) | Joint Stereo | 130 MB
Jazz Door | JD 1221 | Jazz, Bossa Nova

Carnegie Hall Concert album by Stan Getz & Joao Gilberto was released in 1998 on the Jazz Door label. Recorded live at Carnegie Hall, New York in October 1964.
Track Listing:

01. Samba De Uma Nota So - 1:40
02. Desafinado - 2:01
03. Tonight I Shall Sleep With A Smile On My Face - 2:49
04. Grandfather's Waltz - 4:45
05. Stan's Blues - 4:46
06. O Pato - 2:27
07. Samba De Minha Terra - 3:10
08. Bim Bom - 2:09
09. Meditation - 4:05
10. Un Abraco No Bonfa - 2:55
11. Meditacao - 1:49
12. A Felicidade - 2:51
13. The Singing Song - 3:45
14. Here's That Rainy Day - 6:18
15. Summertime - 8:12
16. Six-Nix-Quix-Flix - 1:18


Exact Audio Copy V1.0 beta 3 from 29. August 2011

EAC extraction logfile from 20. January 2013, 9:43

Stan Getz & Joao Gilberto / The Carnegie Hall Concert

Used drive : PIONEER DVD-RW DVR-215D Adapter: 1 ID: 2

Read mode : Secure
Utilize accurate stream : Yes
Defeat audio cache : Yes
Make use of C2 pointers : No

Read offset correction : 48
Overread into Lead-In and Lead-Out : No
Fill up missing offset samples with silence : Yes
Delete leading and trailing silent blocks : No
Null samples used in CRC calculations : Yes
Used interface : Native Win32 interface for Win NT & 2000
Gap handling : Appended to previous track

Used output format : User Defined Encoder
Selected bitrate : 1024 kBit/s
Quality : High
Add ID3 tag : No
Command line compressor : C:\Program Files\Exact Audio Copy\FLAC\FLAC.EXE
Additional command line options : -8 -V -T "ARTIST=%artist%" -T "TITLE=%title%" -T "ALBUM=%albumtitle%" -T "DATE=%year%" -T "TRACKNUMBER=%tracknr%" -T "GENRE=%genre%" -T "PERFORMER=%albuminterpret%" -T "COMPOSER=%composer%" %haslyrics%–tag-from-file=LYRICS="%lyricsfile%"%haslyrics% -T "ALBUMARTIST=%albumartist%" -T "DISCNUMBER=%cdnumber%" -T "TOTALDISCS=%totalcds%" -T "TOTALTRACKS=%numtracks%" -T "COMMENT=%comment%" %source% -o %dest%

TOC of the extracted CD

Track | Start | Length | Start sector | End sector
––––––––––––––––––––––––––––-
1 | 0:00.00 | 1:39.63 | 0 | 7487
2 | 1:39.63 | 2:00.62 | 7488 | 16549
3 | 3:40.50 | 2:48.38 | 16550 | 29187
4 | 6:29.13 | 4:45.27 | 29188 | 50589
5 | 11:14.40 | 4:46.23 | 50590 | 72062
6 | 16:00.63 | 2:27.37 | 72063 | 83124
7 | 18:28.25 | 3:10.03 | 83125 | 97377
8 | 21:38.28 | 2:09.22 | 97378 | 107074
9 | 23:47.50 | 4:04.50 | 107075 | 125424
10 | 27:52.25 | 2:54.38 | 125425 | 138512
11 | 30:46.63 | 1:48.45 | 138513 | 146657
12 | 32:35.33 | 2:50.65 | 146658 | 159472
13 | 35:26.23 | 3:45.27 | 159473 | 176374
14 | 39:11.50 | 6:17.68 | 176375 | 204717
15 | 45:29.43 | 8:11.40 | 204718 | 241582
16 | 53:41.08 | 1:17.42 | 241583 | 247399

Track 1

Filename E:\extractions EAC\Stan Getz & Joao Gilberto - The Carnegie Hall Concert\01 - Samba De Uma Nota So.wav

Pre-gap length 0:00:02.00

Peak level 79.5 %
Extraction speed 3.5 X
Track quality 100.0 %
Test CRC DEBB5C2A
Copy CRC DEBB5C2A
Accurately ripped (confidence 1) [9C7B5F5E] (AR v1)
Copy OK

Track 2

Filename E:\extractions EAC\Stan Getz & Joao Gilberto - The Carnegie Hall Concert\02 - Desafinado.wav

Peak level 96.8 %
Extraction speed 3.1 X
Track quality 99.9 %
Test CRC B990B34B
Copy CRC B990B34B
Accurately ripped (confidence 1) [C4884027] (AR v1)
Copy OK

Track 3

Filename E:\extractions EAC\Stan Getz & Joao Gilberto - The Carnegie Hall Concert\03 - Tonight I Shall Sleep With A Smile On My Face.wav

Peak level 76.9 %
Extraction speed 4.4 X
Track quality 100.0 %
Test CRC 892085D3
Copy CRC 892085D3
Accurately ripped (confidence 1) [361B5553] (AR v1)
Copy OK

Track 4

Filename E:\extractions EAC\Stan Getz & Joao Gilberto - The Carnegie Hall Concert\04 - Grandfather's Waltz.wav

Peak level 87.0 %
Extraction speed 5.1 X
Track quality 100.0 %
Test CRC D80A0455
Copy CRC D80A0455
Accurately ripped (confidence 1) [46D677F3] (AR v1)
Copy OK

Track 5

Filename E:\extractions EAC\Stan Getz & Joao Gilberto - The Carnegie Hall Concert\05 - Stan's Blues.wav

Peak level 95.2 %
Extraction speed 5.6 X
Track quality 100.0 %
Test CRC 620DB6D2
Copy CRC 620DB6D2
Accurately ripped (confidence 1) [669AE4C6] (AR v1)
Copy OK

Track 6

Filename E:\extractions EAC\Stan Getz & Joao Gilberto - The Carnegie Hall Concert\06 - O Pato.wav

Peak level 82.3 %
Extraction speed 5.3 X
Track quality 100.0 %
Test CRC A12893F1
Copy CRC A12893F1
Accurately ripped (confidence 1) [FC061FA0] (AR v1)
Copy OK

Track 7

Filename E:\extractions EAC\Stan Getz & Joao Gilberto - The Carnegie Hall Concert\07 - Samba De Minha Terra.wav

Peak level 92.0 %
Extraction speed 5.8 X
Track quality 100.0 %
Test CRC ED006EC7
Copy CRC ED006EC7
Accurately ripped (confidence 1) [C0F4D391] (AR v1)
Copy OK

Track 8

Filename E:\extractions EAC\Stan Getz & Joao Gilberto - The Carnegie Hall Concert\08 - Bim Bom.wav

Peak level 90.3 %
Extraction speed 5.5 X
Track quality 100.0 %
Test CRC 02DE764D
Copy CRC 02DE764D
Accurately ripped (confidence 1) [CEEF38D8] (AR v1)
Copy OK

Track 9

Filename E:\extractions EAC\Stan Getz & Joao Gilberto - The Carnegie Hall Concert\09 - Meditation.wav

Peak level 88.9 %
Extraction speed 5.7 X
Track quality 99.9 %
Test CRC 7C66CA78
Copy CRC 7C66CA78
Accurately ripped (confidence 1) [9D38E938] (AR v1)
Copy OK

Track 10

Filename E:\extractions EAC\Stan Getz & Joao Gilberto - The Carnegie Hall Concert\10 - Un Abraco No Bonfa.wav

Peak level 83.8 %
Extraction speed 6.2 X
Track quality 100.0 %
Test CRC E0E2B1A4
Copy CRC E0E2B1A4
Accurately ripped (confidence 1) [B291E501] (AR v1)
Copy OK

Track 11

Filename E:\extractions EAC\Stan Getz & Joao Gilberto - The Carnegie Hall Concert\11 - Meditacao.wav

Peak level 71.6 %
Extraction speed 5.8 X
Track quality 100.0 %
Test CRC FB7FA291
Copy CRC FB7FA291
Accurately ripped (confidence 1) [FA5D2550] (AR v1)
Copy OK

Track 12

Filename E:\extractions EAC\Stan Getz & Joao Gilberto - The Carnegie Hall Concert\12 - A Felicidade.wav

Peak level 62.6 %
Extraction speed 6.6 X
Track quality 100.0 %
Test CRC E672636F
Copy CRC E672636F
Accurately ripped (confidence 1) [56788265] (AR v1)
Copy OK

Track 13

Filename E:\extractions EAC\Stan Getz & Joao Gilberto - The Carnegie Hall Concert\13 - The Singing Song.wav

Peak level 95.0 %
Extraction speed 7.1 X
Track quality 100.0 %
Test CRC D2A0084A
Copy CRC D2A0084A
Accurately ripped (confidence 1) [6CBC3752] (AR v1)
Copy OK

Track 14

Filename E:\extractions EAC\Stan Getz & Joao Gilberto - The Carnegie Hall Concert\14 - Here's That Rainy Day.wav

Peak level 94.0 %
Extraction speed 7.8 X
Track quality 100.0 %
Test CRC 0D9D55B1
Copy CRC 0D9D55B1
Accurately ripped (confidence 1) [2296A9F9] (AR v1)
Copy OK

Track 15

Filename E:\extractions EAC\Stan Getz & Joao Gilberto - The Carnegie Hall Concert\15 - Summertime.wav

Peak level 92.1 %
Extraction speed 8.4 X
Track quality 100.0 %
Test CRC 9D0809AC
Copy CRC 9D0809AC
Accurately ripped (confidence 1) [D7408648] (AR v1)
Copy OK

Track 16

Filename E:\extractions EAC\Stan Getz & Joao Gilberto - The Carnegie Hall Concert\16 - Six-Nix-Quix-Flix.wav

Peak level 79.2 %
Extraction speed 6.2 X
Track quality 100.0 %
Test CRC E7428466
Copy CRC E7428466
Accurately ripped (confidence 1) [D5B26FFE] (AR v1)
Copy OK

All tracks accurately ripped

No errors occurred

End of status report

–– CUETools DB Plugin V2.1.3

[CTDB TOCID: eFVenXKJFzN1cjL1etQKqgJlyGE-] found, Submit result: eFVenXKJFzN1cjL1etQKqgJlyGE- has been confirmed
[6c84b5ca] (1/1) Accurately ripped

==== Log checksum A79986A95F8DBFEC8C30DC48580DB1F4FC2264FC3FF7FC4FD424C91AE123A704 ====


[CUETools log; Date: 08/02/2013 18:11:48; Version: 2.1.4]
[AccurateRip ID: 001d0bf2-01654277-c00ce210] found.
Track [ CRC | V2 ] Status
01 [9c7b5f5e|b9d4b54e] (1+0/1) Accurately ripped
02 [c4884027|eddd4982] (1+0/1) Accurately ripped
03 [361b5553|c39ebc2b] (1+0/1) Accurately ripped
04 [46d677f3|4a5f71e6] (1+0/1) Accurately ripped
05 [669ae4c6|6f19699b] (1+0/1) Accurately ripped
06 [fc061fa0|1a24268d] (1+0/1) Accurately ripped
07 [c0f4d391|cc9d3879] (1+0/1) Accurately ripped
08 [ceef38d8|73f08a72] (1+0/1) Accurately ripped
09 [9d38e938|6ffd6681] (1+0/1) Accurately ripped
10 [b291e501|03bbf86d] (1+0/1) Accurately ripped
11 [fa5d2550|9d554707] (1+0/1) Accurately ripped
12 [56788265|177c766b] (1+0/1) Accurately ripped
13 [6cbc3752|18f52645] (1+0/1) Accurately ripped
14 [2296a9f9|bf5b31a1] (1+0/1) Accurately ripped
15 [d7408648|90cd90ec] (1+0/1) Accurately ripped
16 [d5b26ffe|ea36d3f6] (1+0/1) Accurately ripped

Track Peak [ CRC32 ] [W/O NULL] [ LOG ]
– 96,8 [8CCBE415] [70133154]
01 79,5 [DEBB5C2A] [9A4850D3] CRC32
02 96,8 [B990B34B] [E723436C] CRC32
03 76,9 [892085D3] [213A384D] CRC32
04 87,0 [D80A0455] [6D7044CC] CRC32
05 95,2 [620DB6D2] [C3020E93] CRC32
06 82,3 [A12893F1] [D9A0DBFC] CRC32
07 92,0 [ED006EC7] [96458385] CRC32
08 90,3 [02DE764D] [F2336182] CRC32
09 88,8 [7C66CA78] [11D62D1A] CRC32
10 83,8 [E0E2B1A4] [6CEAFBAA] CRC32
11 71,6 [FB7FA291] [6DC8BCF8] CRC32
12 62,6 [E672636F] [F21B50AD] CRC32
13 95,0 [D2A0084A] [B14FD19C] CRC32
14 94,0 [0D9D55B1] [7EB5F8C1] CRC32
15 92,1 [9D0809AC] [F360D08F] CRC32
16 79,2 [E7428466] [0A74CECC] CRC32


Personnel:

* Stan Getz (tenor saxophone)
* Gary Burton (vibraphone)
* Gene Cherico (bass)
* Joe Hunt (drums)

Joao Gilberto Trio:

* Joao Gilberto (guitar)
* Keter Betts (bass)
* Helcio Militio (drums)

Recorded Date: live at Carnegie Hall, New York City, NY, October 1964.
CD Released Date: 1991
Format: CD, Live Album
Length: 54:59

Stan Getz & Joao Gilberto - The Carnegie Hall Concert (1964) [1991 Reissue]
Stan Getz & Joao Gilberto - The Carnegie Hall Concert (1964) [1991 Reissue]

******************************************************

Many Thanks to What & papa1954

The files are interchangeable!