Tags
Language
Tags

Stan Kenton - New Concepts of Artistry in Rhythm (1953) [Reissue 1989]

Posted By: gribovar
Stan Kenton - New Concepts of Artistry in Rhythm (1953) [Reissue 1989]

Stan Kenton - New Concepts of Artistry in Rhythm (1953) [Reissue 1989]
EAC Rip | FLAC (tracks+.cue+log) - 252 MB | MP3 CBR 320 kbps (LAME 3.93) - 113 MB | Covers - 28 MB
Genre: Jazz, Big Band, Progressive Jazz | RAR 3% Rec. | Label: Capitol Jazz (CDP 7 92865 2)

Stan Kenton's 1952 Orchestra was a very interesting transitional band, still performing some of the complex works of the prior Innovations orchestra but also starting to emphasize swing. This CD contains the rather pompous "Prologue" and Bill Holman's complex "Invention for Guitar and Trumpet" (starring guitarist Sal Salvador and trumpeter Maynard Ferguson) but also Gerry Mulligan's boppish "Young Blood" and Bill Russo's features for trumpeter Conte Candoli ("Portrait of a Count"), trombonist Frank Rosolino ("Frank Speaking") and altoist Lee Konitz ("My Lady").
Tracklist:
01. Prologue (This Is An Orchestra!)
02. Portrait Of A Count
03. Young Blood
04. Frank Searing
05. 23°N-82°W
06. Taboo (Bonus track)
07. Lonesome Train (Bonus track)
08. Invention For Guitar And Trumpet
09. My Lady
10. Swing House (Bonus track)
11. Improvisation
12. You Go To My Head (Bonus track)

Total time: 47:57

EAC extraction logfile from 21. February 2008, 21:59 for CD
Stan Kenton / New Concepts of Artistry in Rhythm

Used drive : PIONEER DVD-RW DVR-112D Adapter: 0 ID: 0
Read mode : Secure with NO C2, accurate stream, disable cache
Read offset correction : 48
Overread into Lead-In and Lead-Out : No

Used output format : C:\Program Files\FLAC\flac.exe (User Defined Encoder)
320 kBit/s
Additional command line options : -8 -V -T "ARTIST=%a" -T "TITLE=%t" -T "ALBUM=%g" -T "DATE=%y" -T "TRACKNUMBER=%n" -T "GENRE=%m" -T "COMMENT=EAC FLAC -8" %s

Other options :
Fill up missing offset samples with silence : Yes
Delete leading and trailing silent blocks : No
Installed external ASPI interface


Track 1
Filename D:\music\rip\Stan Kenton - New Concepts of Artistry in Rhythm (1989) [FLAC]\01 - Prologue (This is an Orchestra!).wav

Pre-gap length 0:00:02.00

Peak level 100.0 %
Track quality 100.0 %
Test CRC 3F85444E
Copy CRC 3F85444E
Copy OK

Track 2
Filename D:\music\rip\Stan Kenton - New Concepts of Artistry in Rhythm (1989) [FLAC]\02 - Portrait of a Count.wav

Pre-gap length 0:00:02.49

Peak level 100.0 %
Track quality 99.9 %
Test CRC BD64751C
Copy CRC BD64751C
Copy OK

Track 3
Filename D:\music\rip\Stan Kenton - New Concepts of Artistry in Rhythm (1989) [FLAC]\03 - Young Blood.wav

Pre-gap length 0:00:02.49

Peak level 100.0 %
Track quality 100.0 %
Test CRC 7B9D071D
Copy CRC 7B9D071D
Copy OK

Track 4
Filename D:\music\rip\Stan Kenton - New Concepts of Artistry in Rhythm (1989) [FLAC]\04 - Frank Speaking.wav

Pre-gap length 0:00:02.40

Peak level 100.0 %
Track quality 100.0 %
Test CRC 9658DF50
Copy CRC 9658DF50
Copy OK

Track 5
Filename D:\music\rip\Stan Kenton - New Concepts of Artistry in Rhythm (1989) [FLAC]\05 - 23 Degrees North, 82 Degrees West.wav

Pre-gap length 0:00:02.40

Peak level 95.2 %
Track quality 100.0 %
Test CRC 9976A1F9
Copy CRC 9976A1F9
Copy OK

Track 6
Filename D:\music\rip\Stan Kenton - New Concepts of Artistry in Rhythm (1989) [FLAC]\06 - Taboo.wav

Pre-gap length 0:00:02.49

Peak level 97.0 %
Track quality 100.0 %
Test CRC 17CFA4D3
Copy CRC 17CFA4D3
Copy OK

Track 7
Filename D:\music\rip\Stan Kenton - New Concepts of Artistry in Rhythm (1989) [FLAC]\07 - Lonesome Train.wav

Pre-gap length 0:00:02.49

Peak level 78.8 %
Track quality 100.0 %
Test CRC 8A4C3544
Copy CRC 8A4C3544
Copy OK

Track 8
Filename D:\music\rip\Stan Kenton - New Concepts of Artistry in Rhythm (1989) [FLAC]\08 - Invention for Guitar and Trumpet.wav

Pre-gap length 0:00:02.50

Peak level 100.0 %
Track quality 100.0 %
Test CRC C97DB3B1
Copy CRC C97DB3B1
Copy OK

Track 9
Filename D:\music\rip\Stan Kenton - New Concepts of Artistry in Rhythm (1989) [FLAC]\09 - My Lady.wav

Pre-gap length 0:00:02.40

Peak level 97.2 %
Track quality 99.9 %
Test CRC 15AD1B1C
Copy CRC 15AD1B1C
Copy OK

Track 10
Filename D:\music\rip\Stan Kenton - New Concepts of Artistry in Rhythm (1989) [FLAC]\10 - Swing House.wav

Pre-gap length 0:00:02.42

Peak level 100.0 %
Track quality 100.0 %
Test CRC BB1210BF
Copy CRC BB1210BF
Copy OK

Track 11
Filename D:\music\rip\Stan Kenton - New Concepts of Artistry in Rhythm (1989) [FLAC]\11 - Improvisation.wav

Pre-gap length 0:00:02.49

Peak level 100.0 %
Track quality 100.0 %
Test CRC 718A7B8A
Copy CRC 718A7B8A
Copy OK

Track 12
Filename D:\music\rip\Stan Kenton - New Concepts of Artistry in Rhythm (1989) [FLAC]\12 - You Go to My Head.wav

Pre-gap length 0:00:02.42

Peak level 78.8 %
Track quality 100.0 %
Test CRC B09D5EE1
Copy CRC B09D5EE1
Copy OK

No errors occured


End of status report

[CUETools log; Date: 25.11.2021 16:53:46; Version: 2.1.4]
[CTDB TOCID: r005Zl_bWCGNQGjOgdIwKxQqX5U-] found.
Track | CTDB Status
1 | (50/51) Accurately ripped
2 | (50/51) Accurately ripped
3 | (50/51) Accurately ripped
4 | (50/51) Accurately ripped
5 | (50/51) Accurately ripped
6 | (50/51) Accurately ripped
7 | (50/51) Accurately ripped
8 | (50/51) Accurately ripped
9 | (50/51) Accurately ripped
10 | (50/51) Accurately ripped
11 | (50/51) Accurately ripped
12 | (49/51) Accurately ripped
[AccurateRip ID: 001710c4-00cdf096-bc0b3d0c] found.
Track [ CRC | V2 ] Status
01 [46f697f8|f6a6ca82] (02+14/42) Accurately ripped
02 [94c2b3f2|33578ca7] (02+14/42) Accurately ripped
03 [22b58529|043aa5c5] (02+14/43) Accurately ripped
04 [78942410|9546e891] (02+14/43) Accurately ripped
05 [0affae96|51922422] (02+14/43) Accurately ripped
06 [b622aa63|37235b5e] (02+14/42) Accurately ripped
07 [bd3e5409|28501a6e] (02+14/43) Accurately ripped
08 [e1aa18a2|e803c8c2] (02+13/42) Accurately ripped
09 [50b60d87|dfb03760] (02+14/42) Accurately ripped
10 [f87ac553|425b8288] (02+14/43) Accurately ripped
11 [4937cdd2|4328f24e] (02+14/42) Accurately ripped
12 [7e3e2492|0123397a] (02+15/42) Accurately ripped
Offsetted by 121:
01 [392a6e9f] (10/42) Accurately ripped
02 [c2aee078] (10/42) Accurately ripped
03 [c017ff23] (10/43) Accurately ripped
04 [41c8b7c1] (10/43) Accurately ripped
05 [1adcd871] (10/43) Accurately ripped
06 [b9a70650] (10/42) Accurately ripped
07 [a95befc2] (10/43) Accurately ripped
08 [0ace1304] (10/42) Accurately ripped
09 [455e6135] (10/42) Accurately ripped
10 [7f0f9316] (10/43) Accurately ripped
11 [fcfaa9a9] (10/42) Accurately ripped
12 [0fa5ba6e] (09/42) Accurately ripped
Offsetted by 103:
01 [0ec9dc71] (00/42) No match (V2 was not tested)
02 [080456ac] (00/42) No match (V2 was not tested)
03 [2df86bef] (00/43) No match (V2 was not tested)
04 [21bcaa3f] (00/43) No match (V2 was not tested)
05 [aa7c795b] (00/43) No match (V2 was not tested)
06 [a83420d6] (00/42) No match (V2 was not tested)
07 [0fc15130] (00/43) No match (V2 was not tested)
08 [7095f200] (00/42) No match (V2 was not tested)
09 [c81d2419] (00/42) No match (V2 was not tested)
10 [e7ddef30] (00/43) No match (V2 was not tested)
11 [d9c6671b] (00/42) No match (V2 was not tested)
12 [fe3f9336] (00/42) No match (V2 was not tested)
Offsetted by 237:
01 [f4ee1cab] (00/42) No match (V2 was not tested)
02 [03dd74f0] (00/42) No match (V2 was not tested)
03 [fbffecab] (00/43) No match (V2 was not tested)
04 [f3dd8095] (00/43) No match (V2 was not tested)
05 [27f4928d] (00/43) No match (V2 was not tested)
06 [468b77d4] (00/42) No match (V2 was not tested)
07 [4e5cd136] (00/43) No match (V2 was not tested)
08 [258d20ac] (00/42) No match (V2 was not tested)
09 [c1e65ccd] (00/42) No match (V2 was not tested)
10 [69ddb352] (00/43) No match (V2 was not tested)
11 [6e128f75] (00/42) No match (V2 was not tested)
12 [b8a9d39e] (00/42) No match (V2 was not tested)

Track Peak [ CRC32 ] [W/O NULL] [ LOG ]
– 100,0 [93B502A6] [D8C31039]
01 100,0 [3F85444E] [53C7FB58] CRC32
02 100,0 [BD64751C] [4A6A5021] CRC32
03 100,0 [7B9D071D] [904C8CC8] CRC32
04 100,0 [9658DF50] [8668DFE0] CRC32
05 95,2 [9976A1F9] [6BFC6213] CRC32
06 97,0 [17CFA4D3] [06C02E4A] CRC32
07 78,8 [8A4C3544] [89F320A9] CRC32
08 100,0 [C97DB3B1] [2B359548] CRC32
09 97,2 [15AD1B1C] [0992DCA2] CRC32
10 100,0 [BB1210BF] [01AFAE7D] CRC32
11 100,0 [718A7B8A] [F1AE7C5C] CRC32
12 78,8 [B09D5EE1] [82472FE7] CRC32

Thanks to Musicgate

See also:
Stan Kenton - Kenton in Hi-Fi (1956) [Reissue 1992]
Stan Kenton And His Orchestra - 1940-1944 (1995)