Subcategories

VA - The Lords Of Svek - Stars

Posted By: boccador
VA - The Lords Of Svek - Stars

VA - The Lords Of Svek - Stars (2000)
2000 | Svek Records | House,Techno,Deep House | EAC rip | Flac+Cue+Log | Full Covers(400dpi) | 420mb


VA - The Lords Of Svek - Stars

Track Listings:
01. Joel Mull - Close 2 You (6:01)
02. Szerementa Programs - Numume (3:53)
03. Sunday Brunch - After The Rain (4:54)
04. Brommage Dun - Trinidub (5:55)
05. Briskeby - A Song To Whisper (6:07)
06. Brommage Dub - Trinity (5:24)
07. Jesper Dahlback - Sand (4:34)
08. Forme - Pulse (6:32)
09. Con Ceiled Project - D-Weqst (6:15)
10. Forme - Moonraker (7:38)
11. Conceiled Project - D-End (5:00)

Exact Audio Copy V0.99 prebeta 4 from 23. January 2008
EAC extraction logfile from 19. September 2009, 14:37
Various (The Lords of Svek) / The Lords Of Svek - Stars
Used drive : PIONEER DVD-RW DVR-215D Adapter: 2 ID: 1
Read mode : Secure
Utilize accurate stream : Yes
Defeat audio cache : Yes
Make use of C2 pointers : No
Read offset correction : 48
Overread into Lead-In and Lead-Out : No
Fill up missing offset samples with silence : Yes
Delete leading and trailing silent blocks : No
Null samples used in CRC calculations : Yes
Used interface : Installed external ASPI interface
Used output format : Internal WAV Routines
Sample format : 44.100 Hz; 16 Bit; Stereo
TOC of the extracted CD
Track | Start | Length | Start sector | End sector
––––––––––––––––––––––––––––-
1 | 0:00.00 | 6:00.61 | 0 | 27060
2 | 6:00.61 | 3:52.54 | 27061 | 44514
3 | 9:53.40 | 4:53.52 | 44515 | 66541
4 | 14:47.17 | 5:54.54 | 66542 | 93145
5 | 20:41.71 | 6:06.58 | 93146 | 120653
6 | 26:48.54 | 5:24.03 | 120654 | 144956
7 | 32:12.57 | 4:34.30 | 144957 | 165536
8 | 36:47.12 | 6:32.31 | 165537 | 194967
9 | 43:19.43 | 6:15.31 | 194968 | 223123
10 | 49:34.74 | 7:38.01 | 223124 | 257474
11 | 57:13.00 | 5:01.56 | 257475 | 280105
Range status and errors
Selected range
Filename D:\torrent\VA - The Lords Of Svek - Stars\VA - The Lords Of Svek - Stars.wav
Peak level 100.0 %
Range quality 99.9 %
Test CRC 828896F4
Copy CRC 828896F4
Copy OK
No errors occurred
AccurateRip summary
Track 1 accurately ripped (confidence 2) [94183643]
Track 2 accurately ripped (confidence 2) [09E48717]
Track 3 accurately ripped (confidence 2) [47773DAF]
Track 4 accurately ripped (confidence 2) [9D869AFB]
Track 5 accurately ripped (confidence 2) [A73F2983]
Track 6 accurately ripped (confidence 2) [0E835289]
Track 7 accurately ripped (confidence 2) [D71F7DB7]
Track 8 accurately ripped (confidence 2) [29CDB5BE]
Track 9 accurately ripped (confidence 2) [C30AFF52]
Track 10 cannot be verified as accurate (confidence 2) [4A441C5A], AccurateRip returned [04531BFF]
Track 11 cannot be verified as accurate (confidence 2) [EBAD405B], AccurateRip returned [F3A1D76E]
9 track(s) accurately ripped
2 track(s) could not be verified as accurate
Some tracks could not be verified as accurate
End of status report


Links:
Narod - part1 part2 part3
Rapidshare - part1 part2 part3