Tags
Language
Tags

Stefano Battaglia Trio - The River Of Anyder (2011) {ECM 2151}

Posted By: tiburon
Stefano Battaglia Trio - The River Of Anyder (2011) {ECM 2151}

Stefano Battaglia Trio - The River Of Anyder (2011) {ECM 2151}
EAC 0.99pb4 | FLAC Image | Cue+Log | Full Scans 300dpi | 409MB + 5% Recovery
MP3 CBR 320 Kbps | 181MB + 5% Recovery
Genre: Jazz

Italian pianist and composer Stefano Battaglia has recorded three previous offerings for ECM, all in different settings. Interestingly, The River of Anyder is his first to feature his trio, with bassist Salvatore Maiore and drummer/percussionist Roberto Dani. Battaglia, formerly a classical pianist, approaches composition and improvisation from that vantage point. When he does enter the jazz realm, it is through Italy's own grand jazz tradition from the '70s era on.
Track List
01. Minas Tirith 7:32
02. The River of Anyder 7:01
03. Ararat Dance 8:48
04. Return to Bensalem 7:40
05. Nowhere Song 2:18
06. Sham-bha-lah 15:00
07. Bensalem 12:13
08. Anagoor 11:07
09. Ararat Prayer 6:20
10. Anywhere Song 01:11

musicians
Stefano Battaglia - piano
Salvatore Maiore - double-bass
Roberto Dani - drums

Produced by Manfred Eicher


Exact Audio Copy V0.99 prebeta 4 from 23. January 2008

EAC extraction logfile from 7. October 2011, 1:05

Stefano Battaglia Trio / The River of Anyder

Used drive : TSSTcorpDVD+-RW TS-L632H Adapter: 0 ID: 0

Read mode : Secure
Utilize accurate stream : Yes
Defeat audio cache : Yes
Make use of C2 pointers : No

Read offset correction : 6
Overread into Lead-In and Lead-Out : No
Fill up missing offset samples with silence : Yes
Delete leading and trailing silent blocks : No
Null samples used in CRC calculations : Yes
Used interface : Installed external ASPI interface

Used output format : User Defined Encoder
Selected bitrate : 768 kBit/s
Quality : High
Add ID3 tag : No
Command line compressor : C:\Program Files\Exact Audio Copy\Flac\flac.exe
Additional command line options : -8 -V -T "ARTIST=%a" -T "TITLE=%t" -T "ALBUM=%g" -T "DATE=%y" -T "TRACKNUMBER=%n" -T "TOTALTRACKS=%x" -T "GENRE=%m" -T "ALBUMARTIST=%v" -T "ALBUM ARTIST=%v" -T "COMMENT=EAC Secure Mode, Test & Copy, AccurateRip, FLAC -8" %s


TOC of the extracted CD

Track | Start | Length | Start sector | End sector
––––––––––––––––––––––––––––-
1 | 0:00.00 | 7:32.38 | 0 | 33937
2 | 7:32.38 | 7:01.30 | 33938 | 65542
3 | 14:33.68 | 8:49.00 | 65543 | 105217
4 | 23:22.68 | 7:40.67 | 105218 | 139784
5 | 31:03.60 | 2:18.66 | 139785 | 150200
6 | 33:22.51 | 15:00.52 | 150201 | 217752
7 | 48:23.28 | 12:13.08 | 217753 | 272735
8 | 60:36.36 | 11:07.15 | 272736 | 322775
9 | 71:43.51 | 6:20.52 | 322776 | 351327
10 | 78:04.28 | 1:11.24 | 351328 | 356676


Range status and errors

Selected range

Filename H:\Rips\Stefano Battaglia Trio - The River of Anyder.wav

Peak level 97.7 %
Range quality 100.0 %
Test CRC 008DCA3D
Copy CRC 008DCA3D
Copy OK

No errors occurred


AccurateRip summary

Track 1 not present in database
Track 2 not present in database
Track 3 not present in database
Track 4 not present in database
Track 5 not present in database
Track 6 not present in database
Track 7 not present in database
Track 8 not present in database
Track 9 not present in database
Track 10 not present in database

None of the tracks are present in the AccurateRip database

End of status report


––––––––––––––––––––––––––––––––––––––––
Analyzed: Stefano Battaglia Trio / The River of Anyder
––––––––––––––––––––––––––––––––––––––––

DR Peak RMS Duration Track
––––––––––––––––––––––––––––––––––––––––
DR14 -0.20 dB -18.76 dB 7:33 01-Minas Tirith
DR12 -0.20 dB -16.79 dB 7:01 02-The River of Anyder
DR11 -0.20 dB -15.00 dB 8:49 03-Ararat Dance
DR12 -0.20 dB -16.54 dB 7:41 04-Return to Bensalem
DR13 -8.67 dB -27.42 dB 2:19 05-Nowhere Song
DR12 -0.20 dB -16.58 dB 15:01 06-Sham-bha-lah
DR12 -0.20 dB -16.47 dB 12:13 07-Bensalem
DR15 -0.20 dB -20.36 dB 11:07 08-Anagoor
DR12 -0.20 dB -15.50 dB 6:21 09-Ararat Prayer
DR14 -9.13 dB -29.22 dB 1:11 10-Anywhere Song
––––––––––––––––––––––––––––––––––––––––

Number of tracks: 10
Official DR value: DR13

Samplerate: 44100 Hz
Channels: 2
Bits per sample: 16
Bitrate: 606 kbps
Codec: FLAC
================================================================================

Stefano Battaglia Trio - The River Of Anyder (2011) {ECM 2151}
Stefano Battaglia Trio - The River Of Anyder (2011) {ECM 2151}
Stefano Battaglia Trio - The River Of Anyder (2011) {ECM 2151}


Thanks to the original ripper