Tags
Language
Tags

Stefano Battaglia & Michele Rabbia - Pastorale (2010) {ECM 2120}

Posted By: tiburon
Stefano Battaglia & Michele Rabbia - Pastorale (2010) {ECM 2120}

Stefano Battaglia & Michele Rabbia - Pastorale (2010) {ECM 2120}
EAC 0.99pb5 | FLAC tracks level 8 | Cue+Log+M3U | Full Scans 300dpi | 279MB + 5% Recovery
MP3 CBR 320 Kbps | 140MB + 5% Recovery
Genre: Jazz
Stefano Battaglia & Michele Rabbia - Pastorale (2010) {ECM 2120}

In this beautiful duo album by two of Italy’s most creative musicians, roles are frequently overturned, as lyrical percussion shades into electronics and texture turns to melody. Stefano Battaglia reminds us that the piano is also a percussion instrument and Michele Rabbia is sensitive to all the tonal implications of drums and cymbals. The musicians play with and without scores in material that is variously open-form, tightly-controlled, inspired by folk idioms, by liturgical music and by art installations. Battaglia allows beautiful themes to ripple through the work, and sounds are given room to blossom.
Track List
01. Antifona Libera (A Enzo Bianchi) 6:28
02. Metaphysical Consolations 5:59
03. Monasterium 3:55
04. Oracle 2:28
05. Kursk Requiem 3:58
06. Cantar Del Alma 8:05
07. Spirits Of Myths 4:50
08. Pastorale 7:00
09. Sundance In Balkh 5:50
10. Tanztheater (In Memory Of Pina Bausch) 9:48
11. Vessel Of Magic 2:56

musicians
Stefano Battaglia - piano, prepared piano
Michele Rabbia - percussion, electronics

Produced by Manfred Eicher


Exact Audio Copy V0.99 prebeta 5 from 4. May 2009

EAC extraction logfile from 8. March 2010, 14:53

Stefano Battaglia / Pastorale

Used drive : HL-DT-STDVDRAM GSA-T40N Adapter: 0 ID: 0

Read mode : Secure
Utilize accurate stream : Yes
Defeat audio cache : Yes
Make use of C2 pointers : No

Read offset correction : 667
Overread into Lead-In and Lead-Out : No
Fill up missing offset samples with silence : Yes
Delete leading and trailing silent blocks : No
Null samples used in CRC calculations : Yes
Used interface : Installed external ASPI interface
Gap handling : Appended to previous track

Used output format : User Defined Encoder
Selected bitrate : 128 kBit/s
Quality : High
Add ID3 tag : No
Command line compressor : C:\Program Files\FLAC\flac.exe
Additional command line options : -8 -V -T "ARTIST=%a" -T "TITLE=%t" -T "ALBUM=%g" -T "DATE=%y" -T "TRACKNUMBER=%n" -T "GENRE=%m" -T "COMMENT=EAC FLAC -8" %s


TOC of the extracted CD

Track | Start | Length | Start sector | End sector
––––––––––––––––––––––––––––-
1 | 0:00.00 | 6:28.01 | 0 | 29100
2 | 6:28.01 | 5:59.45 | 29101 | 56070
3 | 12:27.46 | 3:55.45 | 56071 | 73740
4 | 16:23.16 | 2:28.42 | 73741 | 84882
5 | 18:51.58 | 3:58.44 | 84883 | 102776
6 | 22:50.27 | 8:05.38 | 102777 | 139189
7 | 30:55.65 | 4:50.66 | 139190 | 161005
8 | 35:46.56 | 7:00.29 | 161006 | 192534
9 | 42:47.10 | 5:50.59 | 192535 | 218843
10 | 48:37.69 | 9:48.50 | 218844 | 262993
11 | 58:26.44 | 2:56.09 | 262994 | 276202


Track 1

Filename D:\eac\01 - Antifona Libera.wav

Pre-gap length 0:00:02.00

Peak level 96.6 %
Track quality 100.0 %
Test CRC 13E3F7CE
Copy CRC 13E3F7CE
Accurately ripped (confidence 1) [3BBDDEA4]
Copy OK

Track 2

Filename D:\eac\02 - Metaphysical Consolations.wav

Peak level 89.3 %
Track quality 99.9 %
Test CRC 74F4C06E
Copy CRC 74F4C06E
Accurately ripped (confidence 1) [7E2F2AA1]
Copy OK

Track 3

Filename D:\eac\03 - Monasterium.wav

Peak level 96.6 %
Track quality 100.0 %
Test CRC CF190C18
Copy CRC CF190C18
Accurately ripped (confidence 1) [18ABE40E]
Copy OK

Track 4

Filename D:\eac\04 - Oracle.wav

Peak level 96.6 %
Track quality 100.0 %
Test CRC 9F7CB536
Copy CRC 9F7CB536
Accurately ripped (confidence 1) [CAE1DB32]
Copy OK

Track 5

Filename D:\eac\05 - Kursk Requiem.wav

Peak level 96.6 %
Track quality 100.0 %
Test CRC DB951DFD
Copy CRC DB951DFD
Accurately ripped (confidence 1) [0F15B174]
Copy OK

Track 6

Filename D:\eac\06 - Cantar Del Alma.wav

Peak level 96.6 %
Track quality 100.0 %
Test CRC CFB0AB42
Copy CRC CFB0AB42
Accurately ripped (confidence 1) [EECD1B52]
Copy OK

Track 7

Filename D:\eac\07 - Spirits Of Myths.wav

Peak level 96.6 %
Track quality 99.9 %
Test CRC A2F26695
Copy CRC A2F26695
Accurately ripped (confidence 1) [D89BA319]
Copy OK

Track 8

Filename D:\eac\08 - Pastorale.wav

Peak level 96.6 %
Track quality 99.9 %
Test CRC A58E5E90
Copy CRC A58E5E90
Accurately ripped (confidence 1) [592BE152]
Copy OK

Track 9

Filename D:\eac\09 - Sundance In Balkh.wav

Peak level 96.6 %
Track quality 100.0 %
Test CRC 2B9A6A16
Copy CRC 2B9A6A16
Accurately ripped (confidence 1) [217008DB]
Copy OK

Track 10

Filename D:\eac\10 - Tanztheater.wav

Peak level 96.6 %
Track quality 100.0 %
Test CRC CACE7E93
Copy CRC CACE7E93
Accurately ripped (confidence 1) [08E0E247]
Copy OK

Track 11

Filename D:\eac\11 - Vessel Of Magic.wav

Peak level 96.6 %
Track quality 100.0 %
Test CRC 494BFF58
Copy CRC 494BFF58
Accurately ripped (confidence 1) [E4FB4268]
Copy OK


All tracks accurately ripped

No errors occurred

End of status report

Stefano Battaglia & Michele Rabbia - Pastorale (2010) {ECM 2120}
Stefano Battaglia & Michele Rabbia - Pastorale (2010) {ECM 2120}
Stefano Battaglia & Michele Rabbia - Pastorale (2010) {ECM 2120}


Thanks to the original ripper