Tags
Language
Tags

Stephane Grappelli - 1935-1940 (1993)

Posted By: gribovar
Stephane Grappelli - 1935-1940 (1993)

Stéphane Grappelly - 1935-1940 (1993)
EAC Rip | FLAC (tracks+.cue+log) - 217 MB | Covers (5 MB) included
Genre: Gypsy Jazz, Swing | RAR 3% Rec. | Label: Classics Records (CLASSICS 708)

This Classics CD has all of the recordings made under violinist Stephane Grappelli's name during the 1935-1940 period. The earlier selections (with his Hot Four) match his violin with Django Reinhardt's guitar in what was essentially the Quintet of the Hot Club of France. There are also nine duets with Reinhardt; a couple find Grappelli switching to piano. The set concludes in 1940 with Grappelli (in London) leading an octet on two numbers that also feature the young pianist George Shearing.
Tracklist:
01. St. Louis Blues
02. Limehouse Blues
03. I Got Rhythm
04. I've Found A New Baby
05. It Was So Beautiful
06. China Boy
07. Moon Glow
08. It Don't Mean A Thing
09. Alabamy Bound
10. I've Found A New Baby
11. You Took Advantage Of Me
12. Stephen's Blues
13. Sugar
14. Tornerai
15. If I Had You
16. It Had To Be You
17. Nocturne
18. Out Of Nowhere
19. Baby
20. After You've Gone
21. Stéphane's Tune

Total time: 01:03:30

Exact Audio Copy V0.99 prebeta 5 from 4. May 2009

EAC extraction logfile from 28. March 2011, 11:16

Stйphane Grappelli / 1935-1940

Used drive : PIONEER DVD-RW DVR-115D Adapter: 1 ID: 0

Read mode : Secure
Utilize accurate stream : Yes
Defeat audio cache : Yes
Make use of C2 pointers : No

Read offset correction : 48
Overread into Lead-In and Lead-Out : No
Fill up missing offset samples with silence : Yes
Delete leading and trailing silent blocks : No
Null samples used in CRC calculations : Yes
Used interface : Native Win32 interface for Win NT & 2000
Gap handling : Appended to previous track

Used output format : User Defined Encoder
Selected bitrate : 1024 kBit/s
Quality : High
Add ID3 tag : No
Command line compressor : D:\Exact Audio Copy\Flac\flac.exe
Additional command line options : -8 -V -T "Artist=%a" -T "Title=%t" -T "Album=%g" -T "DATE=%y" -T "TRACKNUMBER=%n" -T "Genre=%m" -T "ALBUMARTIST=%v" -T "ALBUM ARTIST=%v" -T "COMMENT=EAC Secure Mode, Test & Copy, AccurateRip, FLAC -8" %s


TOC of the extracted CD

Track | Start | Length | Start sector | End sector
––––––––––––––––––––––––––––-
1 | 0:00.32 | 3:33.28 | 32 | 16034
2 | 3:33.60 | 3:14.05 | 16035 | 30589
3 | 6:47.65 | 3:00.55 | 30590 | 44144
4 | 9:48.45 | 3:08.10 | 44145 | 58254
5 | 12:56.55 | 2:54.57 | 58255 | 71361
6 | 15:51.37 | 3:03.65 | 71362 | 85151
7 | 18:55.27 | 3:05.23 | 85152 | 99049
8 | 22:00.50 | 3:06.40 | 99050 | 113039
9 | 25:07.15 | 2:50.45 | 113040 | 125834
10 | 27:57.60 | 2:37.22 | 125835 | 137631
11 | 30:35.07 | 2:56.30 | 137632 | 150861
12 | 33:31.37 | 3:18.13 | 150862 | 165724
13 | 36:49.50 | 3:05.67 | 165725 | 179666
14 | 39:55.42 | 2:35.15 | 179667 | 191306
15 | 42:30.57 | 2:51.50 | 191307 | 204181
16 | 45:22.32 | 2:56.20 | 204182 | 217401
17 | 48:18.52 | 3:16.63 | 217402 | 232164
18 | 51:35.40 | 3:17.07 | 232165 | 246946
19 | 54:52.47 | 2:39.60 | 246947 | 258931
20 | 57:32.32 | 3:05.43 | 258932 | 272849
21 | 60:38.00 | 2:52.15 | 272850 | 285764


Track 1

Filename F:\EAC\The Chronological Classics - 1993 - Stйphane Grappelli 1935-1940 [FLAC]\01 - Stйphane Grappelli - St. Louis Blues.wav

Pre-gap length 0:00:02.42

Peak level 92.0 %
Track quality 100.0 %
Test CRC B6D2B381
Copy CRC B6D2B381
Track not present in AccurateRip database
Copy OK

Track 2

Filename F:\EAC\The Chronological Classics - 1993 - Stйphane Grappelli 1935-1940 [FLAC]\02 - Stйphane Grappelli - Limehouse Blues.wav

Pre-gap length 0:00:01.77

Peak level 62.9 %
Track quality 100.0 %
Test CRC E69BE976
Copy CRC E69BE976
Track not present in AccurateRip database
Copy OK

Track 3

Filename F:\EAC\The Chronological Classics - 1993 - Stйphane Grappelli 1935-1940 [FLAC]\03 - Stйphane Grappelli - I Got Rhythm.wav

Pre-gap length 0:00:01.44

Peak level 91.5 %
Track quality 100.0 %
Test CRC 894E1C51
Copy CRC 894E1C51
Track not present in AccurateRip database
Copy OK

Track 4

Filename F:\EAC\The Chronological Classics - 1993 - Stйphane Grappelli 1935-1940 [FLAC]\04 - Stйphane Grappelli - I've Found a New Baby.wav

Pre-gap length 0:00:01.60

Peak level 90.6 %
Track quality 100.0 %
Test CRC 41D60B81
Copy CRC 41D60B81
Track not present in AccurateRip database
Copy OK

Track 5

Filename F:\EAC\The Chronological Classics - 1993 - Stйphane Grappelli 1935-1940 [FLAC]\05 - Stйphane Grappelli - It Was So Beautiful.wav

Pre-gap length 0:00:02.66

Peak level 99.6 %
Track quality 100.0 %
Test CRC 92812813
Copy CRC 92812813
Track not present in AccurateRip database
Copy OK

Track 6

Filename F:\EAC\The Chronological Classics - 1993 - Stйphane Grappelli 1935-1940 [FLAC]\06 - Stйphane Grappelli - China Boy.wav

Pre-gap length 0:00:01.93

Peak level 71.9 %
Track quality 100.0 %
Test CRC 02B5C3D7
Copy CRC 02B5C3D7
Track not present in AccurateRip database
Copy OK

Track 7

Filename F:\EAC\The Chronological Classics - 1993 - Stйphane Grappelli 1935-1940 [FLAC]\07 - Stйphane Grappelli - Moon Glow.wav

Pre-gap length 0:00:01.96

Peak level 66.0 %
Track quality 99.9 %
Test CRC 2174242D
Copy CRC 2174242D
Track not present in AccurateRip database
Copy OK

Track 8

Filename F:\EAC\The Chronological Classics - 1993 - Stйphane Grappelli 1935-1940 [FLAC]\08 - Stйphane Grappelli - It Don't Mean a Thing.wav

Pre-gap length 0:00:02.32

Peak level 81.1 %
Track quality 100.0 %
Test CRC 52C1D157
Copy CRC 52C1D157
Track not present in AccurateRip database
Copy OK

Track 9

Filename F:\EAC\The Chronological Classics - 1993 - Stйphane Grappelli 1935-1940 [FLAC]\09 - Stйphane Grappelli - Alabamy Bound.wav

Pre-gap length 0:00:01.53

Peak level 81.3 %
Track quality 100.0 %
Test CRC 8E7D5A1C
Copy CRC 8E7D5A1C
Track not present in AccurateRip database
Copy OK

Track 10

Filename F:\EAC\The Chronological Classics - 1993 - Stйphane Grappelli 1935-1940 [FLAC]\10 - Stйphane Grappelli - I've Found a New Baby.wav

Pre-gap length 0:00:01.60

Peak level 77.8 %
Track quality 100.0 %
Test CRC 285A62B6
Copy CRC 285A62B6
Track not present in AccurateRip database
Copy OK

Track 11

Filename F:\EAC\The Chronological Classics - 1993 - Stйphane Grappelli 1935-1940 [FLAC]\11 - Stйphane Grappelli - You Took Advantage of Me.wav

Pre-gap length 0:00:01.76

Peak level 69.8 %
Track quality 100.0 %
Test CRC 7DC43B81
Copy CRC 7DC43B81
Track not present in AccurateRip database
Copy OK

Track 12

Filename F:\EAC\The Chronological Classics - 1993 - Stйphane Grappelli 1935-1940 [FLAC]\12 - Stйphane Grappelli - Stephen's Blues.wav

Pre-gap length 0:00:01.93

Peak level 89.6 %
Track quality 100.0 %
Test CRC 4BBAAA8F
Copy CRC 4BBAAA8F
Track not present in AccurateRip database
Copy OK

Track 13

Filename F:\EAC\The Chronological Classics - 1993 - Stйphane Grappelli 1935-1940 [FLAC]\13 - Stйphane Grappelli - Sugar.wav

Pre-gap length 0:00:02.00

Peak level 93.1 %
Track quality 100.0 %
Test CRC 8350F1B1
Copy CRC 8350F1B1
Track not present in AccurateRip database
Copy OK

Track 14

Filename F:\EAC\The Chronological Classics - 1993 - Stйphane Grappelli 1935-1940 [FLAC]\14 - Stйphane Grappelli - Torneral.wav

Pre-gap length 0:00:02.13

Peak level 99.6 %
Track quality 100.0 %
Test CRC A3FFEE5B
Copy CRC A3FFEE5B
Track not present in AccurateRip database
Copy OK

Track 15

Filename F:\EAC\The Chronological Classics - 1993 - Stйphane Grappelli 1935-1940 [FLAC]\15 - Stйphane Grappelli - If I Had You.wav

Pre-gap length 0:00:01.80

Peak level 96.4 %
Track quality 99.9 %
Test CRC 9593F0E0
Copy CRC 9593F0E0
Track not present in AccurateRip database
Copy OK

Track 16

Filename F:\EAC\The Chronological Classics - 1993 - Stйphane Grappelli 1935-1940 [FLAC]\16 - Stйphane Grappelli - It Had to Be You.wav

Pre-gap length 0:00:01.56

Peak level 99.5 %
Track quality 100.0 %
Test CRC D35E8BCC
Copy CRC D35E8BCC
Track not present in AccurateRip database
Copy OK

Track 17

Filename F:\EAC\The Chronological Classics - 1993 - Stйphane Grappelli 1935-1940 [FLAC]\17 - Stйphane Grappelli - Nocturne.wav

Pre-gap length 0:00:01.76

Peak level 87.5 %
Track quality 100.0 %
Test CRC FB35921B
Copy CRC FB35921B
Track not present in AccurateRip database
Copy OK

Track 18

Filename F:\EAC\The Chronological Classics - 1993 - Stйphane Grappelli 1935-1940 [FLAC]\18 - Stйphane Grappelli - Out of Nowhere.wav

Pre-gap length 0:00:01.80

Peak level 61.1 %
Track quality 100.0 %
Test CRC 3B3A633C
Copy CRC 3B3A633C
Track not present in AccurateRip database
Copy OK

Track 19

Filename F:\EAC\The Chronological Classics - 1993 - Stйphane Grappelli 1935-1940 [FLAC]\19 - Stйphane Grappelli - Baby.wav

Pre-gap length 0:00:01.66

Peak level 74.4 %
Track quality 100.0 %
Test CRC 881D8E2A
Copy CRC 881D8E2A
Track not present in AccurateRip database
Copy OK

Track 20

Filename F:\EAC\The Chronological Classics - 1993 - Stйphane Grappelli 1935-1940 [FLAC]\20 - Stйphane Grappelli - After You're Gone.wav

Pre-gap length 0:00:01.96

Peak level 90.2 %
Track quality 100.0 %
Test CRC 36BF2FCA
Copy CRC 36BF2FCA
Track not present in AccurateRip database
Copy OK

Track 21

Filename F:\EAC\The Chronological Classics - 1993 - Stйphane Grappelli 1935-1940 [FLAC]\21 - Stйphane Grappelli - Stephane's Tune.wav

Pre-gap length 0:00:01.93

Peak level 92.7 %
Track quality 100.0 %
Test CRC 372DC57D
Copy CRC 372DC57D
Track not present in AccurateRip database
Copy OK


None of the tracks are present in the AccurateRip database

No errors occurred

End of status report

[CUETools log; Date: 15.04.2021 13:42:44; Version: 2.1.4]
Pregap length 00:00:32.
[CTDB TOCID: LLWNZIoGRq9tiPhYi8oFQajGHi4-] found.
Track | CTDB Status
1 | (5/5) Accurately ripped
2 | (5/5) Accurately ripped
3 | (5/5) Accurately ripped
4 | (5/5) Accurately ripped
5 | (5/5) Accurately ripped
6 | (5/5) Accurately ripped
7 | (5/5) Accurately ripped
8 | (5/5) Accurately ripped
9 | (5/5) Accurately ripped
10 | (5/5) Accurately ripped
11 | (5/5) Accurately ripped
12 | (5/5) Accurately ripped
13 | (5/5) Accurately ripped
14 | (5/5) Accurately ripped
15 | (5/5) Accurately ripped
16 | (5/5) Accurately ripped
17 | (5/5) Accurately ripped
18 | (5/5) Accurately ripped
19 | (5/5) Accurately ripped
20 | (5/5) Accurately ripped
21 | (5/5) Accurately ripped
[AccurateRip ID: 0030a0f4-02e538fe-250ee215] found.
Track [ CRC | V2 ] Status
01 [0ab84626|e475cdd1] (02+08/10) Accurately ripped
02 [5d716237|d50cb216] (02+08/10) Accurately ripped
03 [31153752|feaedf06] (02+08/10) Accurately ripped
04 [a6623768|2264562c] (02+08/10) Accurately ripped
05 [53a80b57|a63d001c] (02+08/10) Accurately ripped
06 [60006031|4f934e5b] (02+08/10) Accurately ripped
07 [7a8e2963|3a26d265] (02+08/10) Accurately ripped
08 [c1c30872|4469b839] (02+08/10) Accurately ripped
09 [92ce8b21|eaf750e2] (02+08/10) Accurately ripped
10 [9f33b4c1|c12068d1] (02+08/10) Accurately ripped
11 [efd0376e|199eb5b9] (02+08/10) Accurately ripped
12 [436b70da|b44379d5] (02+08/10) Accurately ripped
13 [e7a1c5d0|e7ac9510] (02+08/10) Accurately ripped
14 [37c138e1|b2e72375] (02+08/10) Accurately ripped
15 [9da3ff69|dba0d27a] (02+08/10) Accurately ripped
16 [5c217bf2|020045d3] (02+08/10) Accurately ripped
17 [e0247cd4|d5861e6d] (02+08/10) Accurately ripped
18 [eade53f8|f91c0d26] (02+08/10) Accurately ripped
19 [22148209|f8310581] (02+08/10) Accurately ripped
20 [69c5549f|ef11cb76] (02+08/10) Accurately ripped
21 [3718537e|13a53496] (02+08/10) Accurately ripped

Track Peak [ CRC32 ] [W/O NULL] [ LOG ]
– 99,6 [AB324D98] [F30E16A5]
01 92,0 [B6D2B381] [EA3298C9] CRC32
02 62,9 [E69BE976] [7A1166EC] CRC32
03 91,5 [894E1C51] [091C16F2] CRC32
04 90,6 [41D60B81] [2A887105] CRC32
05 99,6 [92812813] [7DDA3B5E] CRC32
06 71,9 [02B5C3D7] [D72CB346] CRC32
07 66,0 [2174242D] [A28420CF] CRC32
08 81,1 [52C1D157] [45042893] CRC32
09 81,3 [8E7D5A1C] [C9509748] CRC32
10 77,8 [285A62B6] [DF83AF71] CRC32
11 69,8 [7DC43B81] [BFFEDD71] CRC32
12 89,6 [4BBAAA8F] [FBDD4ADA] CRC32
13 93,1 [8350F1B1] [DA0A40E9] CRC32
14 99,6 [A3FFEE5B] [C0AEDEFC] CRC32
15 96,4 [9593F0E0] [BFF45C73] CRC32
16 99,5 [D35E8BCC] [887E6E54] CRC32
17 87,5 [FB35921B] [CB8AD5E6] CRC32
18 61,1 [3B3A633C] [77E32701] CRC32
19 74,4 [881D8E2A] [0F81CE04] CRC32
20 90,2 [36BF2FCA] [56C78405] CRC32
21 92,7 [372DC57D] [EA1EF673] CRC32

Thanks to the original releaser