Tags
Language
Tags

Stephane Grappelli & Toots Thielemans - Bringing It Together (1984) [Reissue 1995]

Posted By: gribovar
Stephane Grappelli & Toots Thielemans - Bringing It Together (1984) [Reissue 1995]

Stephane Grappelli & Toots Thielemans - Bringing It Together (1984) [Reissue 1995]
EAC Rip | FLAC (image+.cue+log) - 202 MB | Covers (7 MB) included
Genre: Jazz, Swing | RAR 3% Rec. | Label: Cymekob Records (CYK 801-2)

This 1984 studio session finally appeared commercially on the Cymekob label in 1995, featuring violinist Stéphane Grappelli in a rare meeting with harmonica player Toots Thielemans; the rest of the group included guitarists Martin Taylor and Marc Fosset with bassist Brian Torff. Though producer Andy Kulberg claims in his notes that neither musician had recorded any of the songs, this is a bit of a stretch. Things get off to a good start with a swinging "Bye Bye Blackbird" and are only weighed down slightly by the tedious "Just the Two of Us" and Paul Simon's lightweight "Fifty Ways to Leave Your Lover." The rich ballad "Georgia on My Mind" rekindles the fire within the session and "You'd Be So Nice to Come Home To" is highlighted by Thielemans' matchless whistling. While this release could have been stronger with better chosen songs, it will be an essential acquisition for fans of either Grappelli or Thielemans.
Tracklist:
01. Bye Bye Blackbird
02. Just The Two Of Us
03. Fifty Ways To Leave Your Lover
04. Georgia On My Mind
05. Jitterbug Waltz
06. Your'd Be So Nice To Come Home Jo
07. Hit The Road Jack
08. Limehouse Blues
09. As Time Goes By

Total time: 40:27

Exact Audio Copy V0.99 prebeta 5 from 4. May 2009

EAC extraction logfile from 20. April 2011, 22:11

Stephane Grapelli & Toots Thielemans / Bringing it Together

Used drive : TSSTcorpDVD+-RW TS-U633A Adapter: 0 ID: 1

Read mode : Secure
Utilize accurate stream : Yes
Defeat audio cache : Yes
Make use of C2 pointers : No

Read offset correction : 6
Overread into Lead-In and Lead-Out : No
Fill up missing offset samples with silence : Yes
Delete leading and trailing silent blocks : No
Null samples used in CRC calculations : Yes
Used interface : Native Win32 interface for Win NT & 2000

Used output format : Internal WAV Routines
Sample format : 44.100 Hz; 16 Bit; Stereo


TOC of the extracted CD

Track | Start | Length | Start sector | End sector
––––––––––––––––––––––––––––-
1 | 0:00.00 | 4:19.20 | 0 | 19444
2 | 4:19.20 | 5:34.35 | 19445 | 44529
3 | 9:53.55 | 4:50.00 | 44530 | 66279
4 | 14:43.55 | 6:02.00 | 66280 | 93429
5 | 20:45.55 | 3:58.18 | 93430 | 111297
6 | 24:43.73 | 3:45.70 | 111298 | 128242
7 | 28:29.68 | 5:09.60 | 128243 | 151477
8 | 33:39.53 | 3:24.05 | 151478 | 166782
9 | 37:03.58 | 3:23.10 | 166783 | 182017


Range status and errors

Selected range

Filename C:\_Arc\BARIN99\Stephane Grapelli & Toots Thielemans - Bringing it Together\Stephane Grapelli & Toots Thielemans - Bringing it Together.wav

Peak level 100.0 %
Range quality 100.0 %
Copy CRC D694D391
Copy OK

No errors occurred


AccurateRip summary

Track 1 not present in database
Track 2 not present in database
Track 3 not present in database
Track 4 not present in database
Track 5 not present in database
Track 6 not present in database
Track 7 not present in database
Track 8 not present in database
Track 9 not present in database

None of the tracks are present in the AccurateRip database

End of status report

[CUETools log; Date: 15.09.2019 14:55:53; Version: 2.1.4]
[CTDB TOCID: YmZPTvaA_tiIRMb3CAx7ttwqLUY-] found.
Track | CTDB Status
1 | (17/18) Accurately ripped
2 | (17/18) Accurately ripped
3 | (17/18) Accurately ripped
4 | (18/18) Accurately ripped
5 | (18/18) Accurately ripped
6 | (17/18) Accurately ripped
7 | (17/18) Accurately ripped
8 | (18/18) Accurately ripped
9 | (18/18) Accurately ripped
[AccurateRip ID: 000eb3b1-006adc9b-6d097a09] found.
Track [ CRC | V2 ] Status
01 [51feac0a|f530247d] (0+0/9) No match
02 [3e6fe456|fd30496f] (0+0/9) No match
03 [b41f17e4|aac53bbf] (0+0/9) No match
04 [41cbba30|b06a9cde] (0+0/9) No match
05 [bd9d2299|7f083832] (0+0/9) No match
06 [38ba8035|b95d19d2] (0+0/9) No match
07 [09f61e09|e5289478] (0+0/9) No match
08 [3140fa99|94e56788] (0+0/9) No match
09 [74bf33eb|938d60da] (0+0/9) No match
Offsetted by -26:
01 [084c2d0f] (0/9) No match (V2 was not tested)
02 [131a6eb1] (0/9) No match (V2 was not tested)
03 [bd610915] (0/9) No match (V2 was not tested)
04 [9847594c] (0/9) No match (V2 was not tested)
05 [a4c28c58] (0/9) No match (V2 was not tested)
06 [ebea5a8a] (0/9) No match (V2 was not tested)
07 [f5ee12ec] (0/9) No match (V2 was not tested)
08 [c3e63bba] (0/9) No match (V2 was not tested)
09 [c17e7ec0] (0/9) No match (V2 was not tested)
Offsetted by 10:
01 [8c4cc277] (0/9) No match (V2 was not tested)
02 [e3a37315] (0/9) No match (V2 was not tested)
03 [d202c02e] (0/9) No match (V2 was not tested)
04 [9a5db400] (0/9) No match (V2 was not tested)
05 [a17a0092] (0/9) No match (V2 was not tested)
06 [7ce63fcc] (0/9) No match (V2 was not tested)
07 [be3ea34b] (0/9) No match (V2 was not tested)
08 [058fb373] (0/9) No match (V2 was not tested)
09 [6a8078df] (0/9) No match (V2 was not tested)
Offsetted by 278:
01 [e30190a1] (0/9) No match (V2 was not tested)
02 [8238a3c8] (0/9) No match (V2 was not tested)
03 [c8e20fbf] (0/9) No match (V2 was not tested)
04 [d3fb193d] (0/9) No match (V2 was not tested)
05 [fa1df5cf] (0/9) No match (V2 was not tested)
06 [8271f9fa] (0/9) No match (V2 was not tested)
07 [fa607eab] (0/9) No match (V2 was not tested)
08 [4ed509ed] (0/9) No match (V2 was not tested)
09 [8199e4ef] (0/9) No match (V2 was not tested)

Track Peak [ CRC32 ] [W/O NULL] [ LOG ]
– 100,0 [D694D391] [8A48C7C1] CRC32
01 94,5 [B31E5E94] [992F56EA]
02 90,4 [A605F345] [190BAC36]
03 86,7 [31C0725D] [A7095359]
04 75,8 [834B4A3B] [BAE67FFC]
05 72,7 [BB61DB1B] [3FAB0B6D]
06 92,3 [69D7868C] [6D900F50]
07 100,0 [6A9C7054] [B2F28C31]
08 100,0 [BB4D0BEA] [4CF9677D]
09 61,9 [D2AEE5F1] [14FFBEC4]

Thanks to barin99

See also: