Subcategories

Stephen Drury, David Tudor, Ingo Metzmacher, Charles Peltz - John Cage: The Piano Concertos (1997) (Repost)

Posted By: tirexiss
Stephen Drury, David Tudor, Ingo Metzmacher, Charles Peltz - John Cage: The Piano Concertos (1997) (Repost)

Stephen Drury, David Tudor, Ingo Metzmacher, Charles Peltz - John Cage: The Piano Concertos (1997)
EAC | APE (image+.cue, log) | Covers Included | 73:55 | 247 MB
Genre: Avant-garde, Modern Classical | Label: Mode | Catalog: MODE57

The Concerto for Prepared Piano and Orchestra is one of Cage's most delicate works. The orchestra is treated as a group of soloists throughout, and for the most part operate with a small set of pitches and timbres, but is extended by a large array of percussion instruments played by four players. The piano, played by the superb contemporary piano interpreter Stephen Drury, weaves between the orchestral sonorities, rarely taking extended solos, as the piece becomes progressively more sparse until it tapers into silence at the end. The Concert for Piano and Orchestra, although only written six years after the prepared piano concerto, has a completely different emphasis. Whereas the Concerto is completely composed, the Concert is a collection of parts which may be put together in any combination for any length of time. New music pioneer David Tudor, in his last recorded piano performance, plays electronics as well as the piano in this scintillating performance. Sonic gestures from the entire orchestral palette accompany Tudor's interpretations of Cage's experimental and beautifully artistic notations. Fourteen is from Cage's last years and is one of his 'number pieces,' so called based on the number of performers. The number pieces generally are completely notated in terms of pitch, but the durations are specified within time brackets, and the dynamics almost always very quiet. Most unusually, the piano keyboard is not played at all, but the piano (again played by Drury, who directs the ensemble here as well) is bowed using nylon fishing line, resulting in a quiet, shimmering piece, mostly for bowed piano solo, but occasionally colored by other instruments.

Stephen Drury, David Tudor, Ingo Metzmacher, Charles Peltz - John Cage: The Piano Concertos (1997) (Repost)

Track List:

1-3. Concerto for Prepared Piano and Chamber Orchestra (9:12 / 9:30 / 4:58)
(1951, first CD recording)
Stephen Drury, piano & bowed piano
Callithumpian Consort
Charles Peltz, conductor

4. Concert for Piano and Orchestra (30:05)
(1957/58)
David Tudor, piano
Ensemble Modern
Ingo Metzmacher, conductor

5. Fourteen (20:00)
(1990, first recording)
Stephen Drury, piano & bowed piano
Callithumpian Consort
Charles Peltz, conductor

Exact Audio Copy V0.99 prebeta 4 from 23. January 2008

Estrazione File Di Log EAC Del 9. Settembre 2010, 16:44

Various / The Piano Concertos

Unitа Predefinita: ATAPI DVD A DH16A1L Adapter: 1 ID: 0

Modalitа Di Lettura: : Sicura
Utilizza Lettura Accurata : Sм
Disattiva Cache Audio : No
Rileva Errori Lettura C2 : Sм

Correzione Offset Di Lettura: : 6
Sovrascrivi Anche Nel Lead-In E Lead-Out : No
Riempi Sample Offset Mancanti Con Silenzio : Sм
Rimuovi Blocchi Di Silenzio Ad Inizio E Fine Traccia : No
Usa I Sample Nulli Nel Calcolo CRC : Sм
Interfaccia Usata : Interfaccia Nativa Win32 Per Windows NT & 2000

Formato Di Destinazione Scelto: : Routine Interne WAV
Formato Sample : 44.100 Hz; 16 Bit; Stereo


TOC Del CD Estratto

Traccia | Inizio | Lunghezza | Inizio Settore | Fine Settore
––––––––––––––––––––––––––––––––
1 | 0:00.00 | 9:12.51 | 0 | 41450
2 | 9:12.51 | 9:30.42 | 41451 | 84242
3 | 18:43.18 | 5:05.70 | 84243 | 107187
4 | 23:49.13 | 30:05.61 | 107188 | 242623
5 | 53:54.74 | 20:00.14 | 242624 | 332637


Stato Intervallo Ed Errori

Intervallo Selezionato

Nome File C:\avaxhome\Various - The Piano Concertos.wav

Livello Di Picco 100.0 %
Qualitа Intervallo 100.0 %
Copia CRC E63CEEEC
Copia Corretta

Non Sono Stati Riscontrati Errori


Sommario Accuraterip

Traccia 1 Estratta Accuratamente (Confidence 1) [046455C1]
Traccia 2 Estratta Accuratamente (Confidence 1) [2A7C5AE0]
Traccia 3 Estratta Accuratamente (Confidence 1) [AC2B9BA1]
Traccia 4 Estratta Accuratamente (Confidence 1) [1E7679DD]
Traccia 5 Estratta Accuratamente (Confidence 1) [9696344F]

Tutte Le Tracce Sono State Estratte Accuratamente

Fine Del Resoconto Di Stato

[CUETools log; Date: 27.11.2017 22:10:59; Version: 2.1.5]
[CTDB TOCID: p7np2bHWqHEvNdg6pm1ULV4mqmY-] found.
Track | CTDB Status
1 | (6/6) Accurately ripped
2 | (6/6) Accurately ripped
3 | (6/6) Accurately ripped
4 | (6/6) Accurately ripped
5 | (6/6) Accurately ripped
[AccurateRip ID: 000c54d0-003ca0d4-30115305] found.
Track [ CRC | V2 ] Status
01 [046455c1|5391444e] (0+3/3) Accurately ripped
02 [2a7c5ae0|b60cc824] (0+3/3) Accurately ripped
03 [ac2b9ba1|1c7dc544] (0+3/3) Accurately ripped
04 [1e7679dd|8ebfa24e] (0+3/3) Accurately ripped
05 [9696344f|289c2770] (0+2/2) Accurately ripped

Track Peak [ CRC32 ] [W/O NULL]
– 99,9 [E63CEEEC] [4B687F1A]
01 99,6 [85607B74] [B99F5348]
02 94,2 [474C0771] [DD9C5F05]
03 92,2 [1D9AC4AF] [F24C9A08]
04 99,9 [3CBB0A30] [F4891CBC]
05 60,0 [C54D1519] [B9BA2D01]

Thanks to the Original ripper (unknown)!

Download: