Tags
Language
Tags

Steppenwolf - Rock Masterpiece Collection (1997)

Posted By: Designol
Steppenwolf - Rock Masterpiece Collection (1997)

Steppenwolf - Rock Masterpiece Collection (1997)
EAC | FLAC | Image (Cue&Log) ~ 433 Mb | Mp3 (CBR320) ~ 172 Mb | Scans ~ 53 Mb
Hard Rock, Blues-Rock, Acid Rock | Label: MCA Victor | # MVCM-20076 | 01:15:10

Led by John Kay, Steppenwolf's blazing biker anthem "Born to Be Wild" roared out of speakers everywhere in the fiery summer of 1968, John Kay's threatening rasp sounding a mesmerizing call to arms to the counterculture movement rapidly sprouting up nationwide. German immigrant Kay got his professional start in a bluesy Toronto band called Sparrow, recording for Columbia in 1966. After Sparrow disbanded, Kay relocated to the West Coast and formed Steppenwolf, named after the Herman Hesse novel. "Born to Be Wild," their third single on ABC-Dunhill, was immortalized on the soundtrack of Dennis Hopper's underground film classic Easy Rider. The song's reference to "heavy metal thunder" finally gave an assignable name to an emerging genre. Steppenwolf's second monster hit that year, the psychedelic "Magic Carpet Ride," and the follow-ups "Rock Me," "Move Over," and "Hey Lawdy Mama" further established the band's credibility on the hard rock circuit. By the early '70s, Steppenwolf ran out of steam and disbanded. Kay continued to record solo, as other members put together ersatz versions of the band for touring purposes. During the mid-'80s Kay re-formed his own version of Steppenwolf, grinding out his hits (and some new songs) at oldies shows. Nevertheless, they'll be remembered for generations to come for creating one of the ultimate gas'n'go rock anthems of all time.

Bill Dahl, Allmusic.com

Steppenwolf - Rock Masterpiece Collection (1997)



Tracklist:

01. Born To Be Wild (3:30)
02. Sookie Sookie (3:15)
03. The Pusher (5:51)
04. Magic Carpet Ride (4:22)
05. Rock Me (3:43)
06. It's Never Too Late (4:050
07. Move Over (2:54)
08. Monster / Sueside / America (9:14)
09. Hey Lawdy Mama (2:56)
10. Screaming Night Hog (3:18)
11. Who Needs Ya (2:53)
12. Snowblind Friend 93:54)
13. Ride With Me (3:24)
14. For Ladies Only (Edit) (4:53)
15. Tenderness (4:56)
16. I'm Movin' On (Performed by John Kay) (3:10)
17. Straight Shootin' Woman (4:04)
18. Born To Be Wild (Live) (4:47)


Exact Audio Copy V1.0 beta 3 from 29. August 2011

Отчёт EAC об извлечении, выполненном 14. января 2012, 4:03

Steppenwolf / Rock Masterpiece Collection

Дисковод: PLEXTOR CD-R PREMIUM2 Adapter: 0 ID: 0

Режим чтения : Достоверность
Использование точного потока : Да
Отключение кэша аудио : Да
Использование указателей C2 : Нет

Коррекция смещения при чтении : 30
Способность читать области Lead-in и Lead-out : Да
Заполнение пропущенных сэмплов тишиной : Да
Удаление блоков с тишиной в начале и конце : Нет
При вычислениях CRC использовались нулевые сэмплы : Да
Интерфейс : Встроенный Win32-интерфейс для Win NT/2000

Выходной формат : Внутренние WAV-операции
Формат сэмплов : 44.100 Гц; 16 бит; стерео


TOC извлечённого CD

Трек | Старт | Длительность | Начальный сектор | Конечный сектор
––––––––––––––––––––––––––––––––––-
1 | 0:00.37 | 3:30.13 | 37 | 15799
2 | 3:30.50 | 3:15.07 | 15800 | 30431
3 | 6:45.57 | 5:50.53 | 30432 | 56734
4 | 12:36.35 | 4:21.57 | 56735 | 76366
5 | 16:58.17 | 3:43.33 | 76367 | 93124
6 | 20:41.50 | 4:04.47 | 93125 | 111471
7 | 24:46.22 | 2:54.00 | 111472 | 124521
8 | 27:40.22 | 9:14.28 | 124522 | 166099
9 | 36:54.50 | 2:55.65 | 166100 | 179289
10 | 39:50.40 | 3:18.12 | 179290 | 194151
11 | 43:08.52 | 2:53.23 | 194152 | 207149
12 | 46:02.00 | 3:54.35 | 207150 | 224734
13 | 49:56.35 | 3:23.57 | 224735 | 240016
14 | 53:20.17 | 4:53.35 | 240017 | 262026
15 | 58:13.52 | 4:56.10 | 262027 | 284236
16 | 63:09.62 | 3:09.38 | 284237 | 298449
17 | 66:19.25 | 4:03.72 | 298450 | 316746
18 | 70:23.22 | 4:47.13 | 316747 | 338284


Характеристики диапазона извлечения и сообщения об ошибках

Выбранный диапазон

Имя файла F:\Steppenwolf - Rock Masterpiece Collection (MCA Japan) - 1997\Steppenwolf - Rock Masterpiece Collection.wav

Пиковый уровень 100.0 %
Скорость извлечения 2.3 X
Качество диапазона 100.0 %
CRC теста 680A2EF4
CRC копии 680A2EF4
Копирование… OK

Ошибок не произошло


AccurateRip: сводка

Трек 1 : извлечено точно (доверие 1) [B0287452] (AR v1)
Трек 2 : извлечено точно (доверие 1) [6FA504AE] (AR v1)
Трек 3 : извлечено точно (доверие 1) [DEDD517F] (AR v1)
Трек 4 : извлечено точно (доверие 1) [E3D34775] (AR v1)
Трек 5 : извлечено точно (доверие 1) [FDFACE80] (AR v1)
Трек 6 : извлечено точно (доверие 1) [FE19F217] (AR v1)
Трек 7 : извлечено точно (доверие 1) [7FE6F643] (AR v1)
Трек 8 : извлечено точно (доверие 1) [9292D7BC] (AR v1)
Трек 9 : извлечено точно (доверие 1) [5DCBFF92] (AR v1)
Трек 10 : извлечено точно (доверие 1) [16FF8B68] (AR v1)
Трек 11 : извлечено точно (доверие 1) [2F740A56] (AR v1)
Трек 12 : извлечено точно (доверие 1) [77CF81F0] (AR v1)
Трек 13 : извлечено точно (доверие 1) [69792EE3] (AR v1)
Трек 14 : извлечено точно (доверие 1) [2F60D64E] (AR v1)
Трек 15 : извлечено точно (доверие 1) [FBF249F5] (AR v1)
Трек 16 : извлечено точно (доверие 1) [76744EF7] (AR v1)
Трек 17 : извлечено точно (доверие 1) [DC2265FF] (AR v1)
Трек 18 : извлечено точно (доверие 1) [79026452] (AR v1)

Все треки извлечены точно

Конец отчёта

–– CUETools DB Plugin V2.1.3

[CTDB TOCID: UKql21fviF4uhqXMzxDq9Mdu_zk-] disk not present in database, Submit result: discs with pregaps not supported in this protocol version


==== Контрольная сумма отчёта 3AA4118310EF6A2FD0F90A8CA32787D58D315BE3AA5C53C122FF12B9870E8437 ====

[CUETools log; Date: 21.09.2017 17:51:37; Version: 2.1.4]
Pregap length 00:00:37.
[CTDB TOCID: UKql21fviF4uhqXMzxDq9Mdu_zk-] found.
Track | CTDB Status
1 | (2/2) Accurately ripped
2 | (2/2) Accurately ripped
3 | (2/2) Accurately ripped
4 | (2/2) Accurately ripped
5 | (2/2) Accurately ripped
6 | (2/2) Accurately ripped
7 | (2/2) Accurately ripped
8 | (2/2) Accurately ripped
9 | (2/2) Accurately ripped
10 | (2/2) Accurately ripped
11 | (2/2) Accurately ripped
12 | (2/2) Accurately ripped
13 | (2/2) Accurately ripped
14 | (2/2) Accurately ripped
15 | (2/2) Accurately ripped
16 | (2/2) Accurately ripped
17 | (2/2) Accurately ripped
18 | (2/2) Accurately ripped
[AccurateRip ID: 003120e0-028f3157-04119e12] found.
Track [ CRC | V2 ] Status
01 [b0287452|9c69c242] (0+4/4) Accurately ripped
02 [6fa504ae|0456503e] (0+4/4) Accurately ripped
03 [dedd517f|922071ac] (0+4/4) Accurately ripped
04 [e3d34775|b0230f34] (0+4/4) Accurately ripped
05 [fdface80|641e8478] (0+4/4) Accurately ripped
06 [fe19f217|84824cbe] (0+4/4) Accurately ripped
07 [7fe6f643|f8f74297] (0+4/4) Accurately ripped
08 [9292d7bc|2b4e0db4] (0+4/4) Accurately ripped
09 [5dcbff92|fe424d3f] (0+4/4) Accurately ripped
10 [16ff8b68|19078cd5] (0+4/4) Accurately ripped
11 [2f740a56|744b348b] (0+4/4) Accurately ripped
12 [77cf81f0|20c33ab4] (0+4/4) Accurately ripped
13 [69792ee3|c542bb05] (0+4/4) Accurately ripped
14 [2f60d64e|4eadd2fd] (0+4/4) Accurately ripped
15 [fbf249f5|b1ff6ccc] (0+4/4) Accurately ripped
16 [76744ef7|bbe09315] (0+4/4) Accurately ripped
17 [dc2265ff|fb72f63c] (0+4/4) Accurately ripped
18 [79026452|08dca068] (0+4/4) Accurately ripped

Track Peak [ CRC32 ] [W/O NULL] [ LOG ]
– 100,0 [680A2EF4] [180CDFFA] CRC32
01 91,2 [0F88F082] [8B44AB72]
02 99,3 [49A1A73A] [3FE096D7]
03 93,6 [EF6A5C5A] [CA996D7C]
04 98,3 [80C67073] [38A243A1]
05 94,6 [C485038F] [6C91317C]
06 94,2 [5ADEE17A] [C22DD0FA]
07 100,0 [8D528425] [2CC5313D]
08 95,5 [4392F6B6] [76CD7A9E]
09 95,8 [D83BF9E5] [1F4979BF]
10 98,4 [E6A052BA] [1C0C02F2]
11 100,0 [F0B5E033] [C4611A6F]
12 98,8 [EE43AF4C] [71369EA9]
13 100,0 [65142FF9] [43033481]
14 94,4 [4FD9B9E9] [EC7B55FD]
15 95,9 [D0AAAE38] [59B23240]
16 98,1 [8E738C39] [015277C2]
17 96,4 [5C626837] [A8221DBF]
18 71,5 [351F9838] [4FDBEA36]

foobar2000 1.2 / Dynamic Range Meter 1.1.1
log date: 2017-09-21 19:48:58

––––––––––––––––––––––––––––––––––––––––
Analyzed: Steppenwolf / Rock Masterpiece Collection
––––––––––––––––––––––––––––––––––––––––

DR Peak RMS Duration Track
––––––––––––––––––––––––––––––––––––––––
DR11 -0.79 dB -13.36 dB 3:30 01-Born To Be Wild
DR11 -0.06 dB -13.14 dB 3:15 02-Sookie Sookie
DR11 -0.57 dB -14.33 dB 5:51 03-The Pusher
DR12 -0.14 dB -14.62 dB 4:22 04-Magic Carpet Ride
DR10 -0.48 dB -13.27 dB 3:43 05-Rock Me
DR11 -0.52 dB -13.18 dB 4:05 06-It's Never Too Late
DR11 0.00 dB -13.47 dB 2:54 07-Move Over
DR10 -0.40 dB -13.46 dB 9:14 08-Monster/ Sueside / America
DR11 -0.37 dB -14.33 dB 2:56 09-Hey Lawdy Mama
DR12 -0.14 dB -13.89 dB 3:18 10-Screaming Night Hog
DR11 0.00 dB -13.46 dB 2:53 11-Who Needs Ya
DR13 -0.10 dB -14.96 dB 3:54 12-Snowblind Friend
DR11 0.00 dB -13.78 dB 3:24 13-Ride With Me
DR12 -0.50 dB -14.46 dB 4:53 14-For Ladies Only(Edit)
DR12 -0.36 dB -14.35 dB 4:56 15-Tenderness
DR11 -0.16 dB -13.78 dB 3:10 16-I'm Movin' On (Performed by John Kay)
DR12 -0.31 dB -13.64 dB 4:04 17-Straigh Shootin' Woman
DR9 -2.90 dB -13.82 dB 4:47 18-Born To Be Wild (Live)
––––––––––––––––––––––––––––––––––––––––

Number of tracks: 18
Official DR value: DR11

Samplerate: 44100 Hz
Channels: 2
Bits per sample: 16
Bitrate: 805 kbps
Codec: FLAC
================================================================================

Steppenwolf - Rock Masterpiece Collection (1997)

Steppenwolf - Rock Masterpiece Collection (1997)

All thanks to original releaser - Stripakulina

More interesting music in My Blog

Steppenwolf - Gold (2005) 2 CDs