Tags
Language
Tags
November 2022
Su Mo Tu We Th Fr Sa
30 31 1 2 3 4 5
6 7 8 9 10 11 12
13 14 15 16 17 18 19
20 21 22 23 24 25 26
27 28 29 30 1 2 3

Steppenwolf - Steppenwolf (1968)

Posted By: popsakov
Steppenwolf - Steppenwolf (1968)

Steppenwolf - Steppenwolf (1968)
EAC Rip | FLAC (Img) + Cue + Log ~ 333 Mb | MP3 CBR320 ~ 135 Mb
Full Scans | 00:47:25 | RAR 5% Recovery
Hard Rock, Psychedelic Rock, Blues Rock | MCA Records Canada #MCBBD 31020

Steppenwolf is a Canadian-American rock group that was prominent from 1968 to 1972. The group was formed in late 1961 in Toronto by vocalist John Kay, keyboardist Goldy McJohn and drummer Jerry Edmonton. Steppenwolf sold over 25 million records worldwide, releasing eight gold albums and twelve Billboard Hot 100 singles, of which six were Top 40 hits, including three Top 10 successes: "Born to Be Wild", written by Dennis Edmonton, "Magic Carpet Ride", and "Rock Me." Steppenwolf is the first studio album by American rock band Steppenwolf, released in January 1968 on ABC Dunhill Records. The album was a successful debut for the band, featuring the songs "Born to Be Wild", as well as "The Pusher", both of which were used in the 1969 film Easy Rider. "Berry Rides Again" is a tribute to guitarist Chuck Berry.

Steppenwolf entered the studio for their recording debut with a lot of confidence – based on a heavy rehearsal schedule before they ever got signed – and it shows on this album, a surprisingly strong debut album from a tight hard rock outfit who was obviously searching for a hook to hang their sound on. The playing is about as loud and powerful as anything being put out by a major record label in 1968, though John Kay's songwriting needed some development before their in-house repertory would catch up with their sound and musicianship. On this album, the best material came from outside the ranks of the active bandmembers: "Born to Be Wild" by ex-member Mars Bonfire, which became not only a chart-topping high-energy anthem for the counterculture (a status solidified by its use in Dennis Hopper's movie Easy Rider the following year), but coined the phrase heavy metal, thus giving a genre-specific name to the brand of music that the band played (and which was already manifesting itself in the work of bands like Vanilla Fudge and the just-emerging Led Zeppelin); the Don Covay soul cover "Sookie, Sookie," which, as a single by the new group, actually got played on some soul stations until they found out that Steppenwolf was white; two superb homages to Chess Records, in the guise of "Berry Rides Again," written (though "adapted" might be a better word) by Kay based on the work of Chuck Berry, and the Willie Dixon cover "Hoochie Coochie Man"; and Hoyt Axton's "The Pusher," an anti-drug song turned into a pounding six-minute tour de force by the band. The rest, apart from the surprisingly lyrical rock ballad "A Girl I Knew," is by-the-numbers hard rock that lacked much except a framework for their playing; only "The Ostrich" ever comes fully to life among the other originals, but the songs would catch up with the musicianship the next time out.

~ Bruce Eder, All Music

***************

Steppenwolf - Steppenwolf (1968)

Steppenwolf - Steppenwolf (1968)

Track List:

01. Sookie Sookie [03:18]
02. Everybody's Next One [03:01]
03. Berry Rides Again [02:53]
04. Hoochie Coochie Man [05:16]
05. Born To Be Wild [03:33]
06. Your Wall's Too High [05:49]
07. Desperation [05:48]
08. The Pusher [05:53]
09. A Girl I Knew [02:43]
10. Take What You Need [03:32]
11. The Ostrich [05:43]

Exact Audio Copy V1.0 beta 1 from 15. November 2010

EAC extraction logfile from 11. March 2016, 21:16

Steppenwolf / Steppenwolf

Used drive : MATSHITADVD-RAM UJ8A0AS Adapter: 0 ID: 1

Read mode : Secure
Utilize accurate stream : Yes
Defeat audio cache : Yes
Make use of C2 pointers : No

Read offset correction : 102
Overread into Lead-In and Lead-Out : No
Fill up missing offset samples with silence : Yes
Delete leading and trailing silent blocks : No
Null samples used in CRC calculations : Yes
Used interface : Native Win32 interface for Win NT & 2000

Used output format : Internal WAV Routines
Sample format : 44.100 Hz; 16 Bit; Stereo


TOC of the extracted CD

Track | Start | Length | Start sector | End sector
––––––––––––––––––––––––––––-
1 | 0:00.00 | 3:17.17 | 0 | 14791
2 | 3:17.17 | 3:00.35 | 14792 | 28326
3 | 6:17.52 | 2:52.28 | 28327 | 41254
4 | 9:10.05 | 5:15.52 | 41255 | 64931
5 | 14:25.57 | 3:32.65 | 64932 | 80896
6 | 17:58.47 | 5:48.23 | 80897 | 107019
7 | 23:46.70 | 5:47.52 | 107020 | 133096
8 | 29:34.47 | 5:52.70 | 133097 | 159566
9 | 35:27.42 | 2:42.63 | 159567 | 171779
10 | 38:10.30 | 3:31.40 | 171780 | 187644
11 | 41:41.70 | 5:42.62 | 187645 | 213356


Range status and errors

Selected range

Filename C:\Users\Alex\Music\Alexharvey\Steppenwolf - Steppenwolf.wav

Peak level 97.7 %
Extraction speed 0.1 X
Range quality 100.0 %
Test CRC 70B7A650
Copy CRC 70B7A650
Copy OK

No errors occurred


AccurateRip summary

Track 1 accurately ripped (confidence 7) [BC4C2B83]
Track 2 accurately ripped (confidence 7) [DE5CBB54]
Track 3 accurately ripped (confidence 7) [C5F31D88]
Track 4 accurately ripped (confidence 7) [867767AB]
Track 5 accurately ripped (confidence 7) [9B2721D5]
Track 6 accurately ripped (confidence 7) [BC39E03A]
Track 7 accurately ripped (confidence 7) [838A5338]
Track 8 accurately ripped (confidence 7) [0A521E9C]
Track 9 accurately ripped (confidence 7) [D8FA35F3]
Track 10 accurately ripped (confidence 7) [577A7973]
Track 11 accurately ripped (confidence 7) [DE36205A]

All tracks accurately ripped

End of status report

==== Log checksum DAAD5C05FE55CDE1AC9A05F3189D0942C1F95EFDEA44CB994275EC9B14460204 ====

[CUETools log; Date: 13.05.2019 20:11:40; Version: 2.1.6]
[CTDB TOCID: Z8p_S8opXHKqcuFbmrqG5P51sR8-] found.
Track | CTDB Status
1 | (70/71) Accurately ripped
2 | (71/71) Accurately ripped
3 | (70/71) Accurately ripped
4 | (69/71) Accurately ripped
5 | (71/71) Accurately ripped
6 | (71/71) Accurately ripped
7 | (69/71) Accurately ripped
8 | (71/71) Accurately ripped
9 | (71/71) Accurately ripped
10 | (71/71) Accurately ripped
11 | (71/71) Accurately ripped
[AccurateRip ID: 001259ed-00a2fde2-9d0b1c0b] found.
Track [ CRC | V2 ] Status
01 [bc4c2b83|83e9bf1c] (10+08/63) Accurately ripped
02 [de5cbb54|681a2a7e] (10+08/64) Accurately ripped
03 [c5f31d88|6a550230] (10+08/64) Accurately ripped
04 [867767ab|964339ff] (10+08/63) Accurately ripped
05 [9b2721d5|f84386a2] (11+09/66) Accurately ripped
06 [bc39e03a|71deb001] (10+08/64) Accurately ripped
07 [838a5338|1a109acb] (10+08/63) Accurately ripped
08 [0a521e9c|e0821cde] (10+09/65) Accurately ripped
09 [d8fa35f3|aa933a49] (10+08/65) Accurately ripped
10 [577a7973|a8d14efa] (10+08/63) Accurately ripped
11 [de36205a|7f6b6e8f] (08+08/60) Accurately ripped
Offsetted by 681:
01 [621e5922] (06/63) Accurately ripped
02 [4f0b2f00] (06/64) Accurately ripped
03 [ad0dcaf9] (06/64) Accurately ripped
04 [2ba80614] (06/63) Accurately ripped
05 [d5624d63] (06/66) Accurately ripped
06 [f0e0af19] (06/64) Accurately ripped
07 [db55aa9e] (06/63) Accurately ripped
08 [6cd9ed10] (06/65) Accurately ripped
09 [e40c9860] (06/65) Accurately ripped
10 [e093685c] (06/63) Accurately ripped
11 [65a8b249] (06/60) Accurately ripped
Offsetted by 864:
01 [7ca26323] (06/63) Accurately ripped
02 [a1334bd4] (06/64) Accurately ripped
03 [f9d14be8] (06/64) Accurately ripped
04 [8648d30b] (06/63) Accurately ripped
05 [bfd0ef15] (07/66) Accurately ripped
06 [03898fda] (07/64) Accurately ripped
07 [725cf178] (06/63) Accurately ripped
08 [7548da1c] (07/65) Accurately ripped
09 [07bab2d3] (07/65) Accurately ripped
10 [545c14d3] (06/63) Accurately ripped
11 [ffdcc34c] (04/60) Accurately ripped
Offsetted by 1197:
01 [9c18f33e] (05/63) Accurately ripped
02 [e6f5fe30] (05/64) Accurately ripped
03 [5324431d] (05/64) Accurately ripped
04 [1636df18] (05/63) Accurately ripped
05 [b5f260db] (05/66) Accurately ripped
06 [29b04635] (05/64) Accurately ripped
07 [bbbe1e76] (05/63) Accurately ripped
08 [73d7f260] (05/65) Accurately ripped
09 [2714e2f4] (05/65) Accurately ripped
10 [f07db360] (05/63) Accurately ripped
11 [fe39ba19] (05/60) Accurately ripped
Offsetted by 517:
01 [0e33e8a6] (00/63) No match (V2 was not tested)
02 [525b5850] (00/64) No match (V2 was not tested)
03 [09226f35] (00/64) No match (V2 was not tested)
04 [cf3f1670] (00/63) No match (V2 was not tested)
05 [e7504b2b] (00/66) No match (V2 was not tested)
06 [59dc399d] (00/64) No match (V2 was not tested)
07 [d77be906] (00/63) No match (V2 was not tested)
08 [2923fb40] (00/65) No match (V2 was not tested)
09 [4bc480ac] (00/65) No match (V2 was not tested)
10 [4aa636b8] (00/63) No match (V2 was not tested)
11 [dd3b8763] (00/60) No match (V2 was not tested)
Offsetted by 1179:
01 [ed6c7cc0] (00/63) No match (V2 was not tested)
02 [6d9185d8] (00/64) No match (V2 was not tested)
03 [4764f77b] (00/64) No match (V2 was not tested)
04 [7637d786] (00/63) No match (V2 was not tested)
05 [252ed73f] (00/66) No match (V2 was not tested)
06 [12de9d37] (00/64) No match (V2 was not tested)
07 [9c19bb2a] (00/63) No match (V2 was not tested)
08 [c6f2ce78] (00/65) No match (V2 was not tested)
09 [cb70e05a] (00/65) No match (V2 was not tested)
10 [f5e3aace] (00/63) No match (V2 was not tested)
11 [bcba1955] (00/60) No match (V2 was not tested)

Track Peak [ CRC32 ] [W/O NULL] [ LOG ]
– 97,7 [70B7A650] [5E36A334] CRC32
01 97,7 [6F470886] [25A61872]
02 92,8 [B9C8469D] [FC33F1A5]
03 92,8 [7290CFFE] [A2C0BE93]
04 94,6 [17F055E3] [BCCD49B9]
05 89,5 [AF381EA0] [FBF8B4F1]
06 97,7 [57F37E7A] [F20E1533]
07 96,1 [F4E6A7F9] [5E02C1F5]
08 90,6 [91AC42FA] [8091B749]
09 97,7 [7F818F0C] [925B27E0]
10 79,9 [CE66FC28] [A758E189]
11 90,8 [C74EB953] [1799C25E]

Steppenwolf - Steppenwolf (1968)


See also:

John Kay & Steppenwolf ...ine (1990) {2005, Reissue}

All thanks go to alexharvey

>>> My Blog <<<

DOWNLOAD: