Tags
Language
Tags

Steve Thomson - Everyone Loves A Winner (1990)

Posted By: BlondStyle
Steve Thomson - Everyone Loves A Winner (1990)

Steve Thomson - Everyone Loves A Winner (1990)
Rock, Melodic Rock, AOR | EAC Rip | FLAC, Img+CUE+LOG+Scans (JPEG) | 42:02 | 294,18 Mb
Label: Phonogram/Mercury (W-Germany) | Cat.# 846 676-2 | Released: 1990

The second Steve Thomson's (his real name is René Felix Zenklusen) studio album "Everyone Loves A Winner" was released in 1990. The 11 songs were recorded this time in the legendary Dutch Wisseloord Studios and produced by Joey Balin. For this project Steve Thomson was able to work with Chris Egger (keyboards), John Roggio (guitar), bassist Greg Smith (Ted Nugent, Rainbow, Alice Cooper) and Ricky Anthony Parent (drums).
Steve Thomson - Everyone Loves A Winner (1990)

Steve Thomson - Everyone Loves A Winner (1990)




Release of this album: 1990 [LP Mercury, Cat.# 846 676-1, EU]
Release of this CD: 1990 [Mercury (W-Germany), Cat.# 846 676-2 / UPC: 042284667623]
℗&© 1990 Phonogram GmbH, Köln.
Manufactured by Mercury Records.
Made in West Germany


Credits:

Vocals - Steve Thomson
Keyboards - Chris Egger
Lead, Rhythm, Acoustic Guitars - John Roggio
Bass - Greg Smith
Drums - Ricky Anthony
Acoustic Guitars (Tracks 3, 10) - Joey Balin


Tracklist:

01. Walk Like A Man (04:14)
02. Everyone Loves A Winner (03:38)
03. Blazing Heart (04:35)
04. All Through The Night (03:50)
05. All That I Ask (04:46)
06. Dream On (03:47)
07. Hot Cherie (04:10)
08. Give It Up (03:15)
09. Time Will Tell (03:43)
10. Take Me Back (02:25)
11. I'll Take My Chances (03:39)

Exact Audio Copy V1.0 beta 3 from 29. August 2011

Отчёт EAC об извлечении, выполненном 29. июля 2013, 5:45

Steve Thomson / Everyone Loves A Winner (846 676-2)

Дисковод: ASUS DRW-24B5ST Adapter: 2 ID: 1

Режим чтения : Достоверность
Использование точного потока : Да
Отключение кэша аудио : Да
Использование указателей C2 : Нет

Коррекция смещения при чтении : 6
Способность читать области Lead-in и Lead-out : Нет
Заполнение пропущенных сэмплов тишиной : Да
Удаление блоков с тишиной в начале и конце : Нет
При вычислениях CRC использовались нулевые сэмплы : Да
Интерфейс : Встроенный Win32-интерфейс для Win NT/2000

Выходной формат : Пользовательский кодировщик
Выбранный битрейт : 1024 kBit/s
Качество : Высокий
Добавление ID3-тега : Нет
Утилита сжатия : C:\Program Files\Exact Audio Copy\Flac\flac.exe
Дополнительные параметры : -V -8 -T "Date=%year%" -T "Genre=%genre%" -T "Comment=Ripped By Snaggletooth" %source%


TOC извлечённого CD

Трек | Старт | Длительность | Начальный сектор | Конечный сектор
––––––––––––––––––––––––––––––––––-
1 | 0:00.00 | 4:14.16 | 0 | 19065
2 | 4:14.16 | 3:37.52 | 19066 | 35392
3 | 7:51.68 | 4:34.58 | 35393 | 56000
4 | 12:26.51 | 3:49.59 | 56001 | 73234
5 | 16:16.35 | 4:46.26 | 73235 | 94710
6 | 21:02.61 | 3:46.63 | 94711 | 111723
7 | 24:49.49 | 4:09.56 | 111724 | 130454
8 | 28:59.30 | 3:15.17 | 130455 | 145096
9 | 32:14.47 | 3:43.16 | 145097 | 161837
10 | 35:57.63 | 2:24.59 | 161838 | 172696
11 | 38:22.47 | 3:39.28 | 172697 | 189149


Характеристики диапазона извлечения и сообщения об ошибках

Выбранный диапазон

Имя файла C:\Snaggletooth Lossless\Steve Thomson - Everyone Loves A Winner (846 676-2).wav

Пиковый уровень 100.0 %
Скорость извлечения 7.0 X
Качество диапазона 100.0 %
CRC теста 54D4A10F
CRC копии 54D4A10F
Копирование… OK

Ошибок не произошло


AccurateRip: сводка

Трек 1 точность не определена (достоверность 1) [FF60D24F], AccurateRip вернул [B14A94B3] (AR v2)
Трек 2 точность не определена (достоверность 1) [C174A866], AccurateRip вернул [10F867A4] (AR v2)
Трек 3 точность не определена (достоверность 1) [83CCD420], AccurateRip вернул [ACE53875] (AR v2)
Трек 4 точность не определена (достоверность 1) [8016FB4B], AccurateRip вернул [D87FF734] (AR v2)
Трек 5 точность не определена (достоверность 1) [EBE5DE76], AccurateRip вернул [2EDC4A29] (AR v2)
Трек 6 точность не определена (достоверность 1) [39805FFA], AccurateRip вернул [00A1277B] (AR v2)
Трек 7 точность не определена (достоверность 1) [682992A1], AccurateRip вернул [328AA722] (AR v2)
Трек 8 точность не определена (достоверность 1) [AF0B2822], AccurateRip вернул [1908B908] (AR v2)
Трек 9 точность не определена (достоверность 1) [5AEB87C4], AccurateRip вернул [8280FDEC] (AR v2)
Трек 10 точность не определена (достоверность 1) [1665DCB2], AccurateRip вернул [F7AB2A3C] (AR v2)
Трек 11 точность не определена (достоверность 1) [62621D14], AccurateRip вернул [AE34E96B] (AR v2)

Ни один трек не прошёл проверки на точность
В вашей базе может быть иной вариант штамповки диска

Конец отчёта

–– CUETools DB Plugin V2.1.5

[CTDB TOCID: hxyvB8AenL8PMGq_9mS3cQS9vVg-] found
Submit result: hxyvB8AenL8PMGq_9mS3cQS9vVg- has been uploaded
Track | CTDB Status
1 | (0/2) No match
2 | (0/2) No match
3 | (0/2) No match
4 | (0/2) No match
5 | (0/2) No match
6 | (0/2) No match
7 | (0/2) No match
8 | (0/2) No match
9 | (0/2) No match
10 | (0/2) No match
11 | (0/2) No match


==== Контрольная сумма отчёта 53C207596972253F50DFCF8920093EDC8A1453F7691E5E9585608BB3EE1DC15A ====

––––––––––––––––––––––––––––––––––––––––
Analyzed: Steve Thomson / Everyone Loves A Winner (846 676-2)
––––––––––––––––––––––––––––––––––––––––

DR Peak RMS Duration Track
––––––––––––––––––––––––––––––––––––––––
DR12 -0.02 dB -13.33 dB 4:14 01-Walk Like A Man
DR12 0.00 dB -14.00 dB 3:38 02-Everyone Loves A Winner
DR10 0.00 dB -13.64 dB 4:35 03-Blazing Heart
DR11 0.00 dB -13.00 dB 3:50 04-All Through The Night
DR12 0.00 dB -13.82 dB 4:46 05-All That I Ask
DR12 0.00 dB -14.02 dB 3:47 06-Dream On
DR12 0.00 dB -13.31 dB 4:10 07-Hot Cherie
DR11 -0.02 dB -12.90 dB 3:15 08-Give It Up
DR11 -0.01 dB -12.78 dB 3:43 09-Time Will Tell
DR11 0.00 dB -14.35 dB 2:25 10-Take Me Back
DR11 -0.11 dB -12.93 dB 3:39 11-I'll Take My Chances
––––––––––––––––––––––––––––––––––––––––

Number of tracks: 11
Official DR value: DR11

Samplerate: 44100 Hz
Channels: 2
Bits per sample: 16
Bitrate: 940 kbps
Codec: FLAC
================================================================================

Thanks to original releaser

♫~Welcome To My Blog~♫

password: BlondStyle