Subcategories
Tags
Language
Tags

Stick Men - 4 Studio Albums (2010-2013)

Posted By: gribovar
Stick Men - 4 Studio Albums (2010-2013)

Stick Men - 4 Studio Albums (2010-2013)
EAC Rip | FLAC (image+.cue+log) - 1,24 GB | MP3 CBR 320 kbps (LAME 3.93) - 470 MB | Covers - 129 MB
Genre: Progressive Rock | RAR 3% Rec. | Label: Stick Men Records

Stick Men is an Eclectic Prog supergroup founded in 2007 by Pat Mastelotto (King Crimson), Tony Levin (King Crimson, Peter Gabriel) and Michael Bernier. Since 2010, the lineup stabilized around Mastelotto, Levin, and Markus Reuter. The band was formed as a vehicle for progressive rock music performed almost exclusively with Chapman Sticks and drums. Needles to say, the fans of crimsonian prog will love it; there's also a lot of jazz and heavy chugging bursts, as well as avant moments and African soundscapes.

Stick Men - 4 Studio Albums (2010-2013)

Stick Men - Soup (2010)
EAC Rip | FLAC (image+.cue+log) - 360 MB | MP3 CBR 320 kbps (LAME 3.93) - 131 MB | Covers - 37 MB
Genre: Progressive Rock | RAR 3% Rec. | Label: Stick Men Records

Tracklist:
01. Soup
02. Hands Part 1
03. Hands Part 2
04. Hands Part 3
05. Inside the Red Pyramid
06. Fugue
07. Sasquatch
08. Scarlet Wheel
09. The Firebird Suite Part 1
10. The Firebird Suite Part 2
11. The Firebird Suite Part 3
12. The Firebird Suite Part 4
13. Relentless

Total time: 55:33

Exact Audio Copy V1.0 beta 3 from 29. August 2011

EAC extraction logfile from 9. December 2011, 12:59

Stick Men / Soup

Used drive : PLEXTOR DVDR PX-760A Adapter: 0 ID: 1

Read mode : Secure
Utilize accurate stream : Yes
Defeat audio cache : Yes
Make use of C2 pointers : No

Read offset correction : 30
Overread into Lead-In and Lead-Out : Yes
Fill up missing offset samples with silence : Yes
Delete leading and trailing silent blocks : No
Null samples used in CRC calculations : Yes
Used interface : Installed external ASPI interface

Used output format : Internal WAV Routines
Sample format : 44.100 Hz; 16 Bit; Stereo


TOC of the extracted CD

Track | Start | Length | Start sector | End sector
––––––––––––––––––––––––––––-
1 | 0:00.00 | 5:44.38 | 0 | 25837
2 | 5:44.38 | 3:06.05 | 25838 | 39792
3 | 8:50.43 | 3:33.37 | 39793 | 55804
4 | 12:24.05 | 2:06.57 | 55805 | 65311
5 | 14:30.62 | 4:45.08 | 65312 | 86694
6 | 19:15.70 | 5:49.28 | 86695 | 112897
7 | 25:05.23 | 5:43.67 | 112898 | 138689
8 | 30:49.15 | 5:19.42 | 138690 | 162656
9 | 36:08.57 | 2:55.10 | 162657 | 175791
10 | 39:03.67 | 4:11.68 | 175792 | 194684
11 | 43:15.60 | 3:12.65 | 194685 | 209149
12 | 46:28.50 | 3:03.43 | 209150 | 222917
13 | 49:32.18 | 6:00.48 | 222918 | 249965


Range status and errors

Selected range

Filename Z:\data\mp3\Seeding Archive\Stick Men\2010-Soup\Soup.wav

Peak level 100.0 %
Extraction speed 2.5 X
Range quality 100.0 %
Test CRC 345E3EBD
Copy CRC 345E3EBD
Copy OK

No errors occurred


AccurateRip summary

Track 1 accurately ripped (confidence 2) [75933739] (AR v2)
Track 2 accurately ripped (confidence 2) [F834A45D] (AR v2)
Track 3 accurately ripped (confidence 2) [F23A4829] (AR v2)
Track 4 accurately ripped (confidence 2) [BF68B96E] (AR v2)
Track 5 accurately ripped (confidence 2) [2430D43E] (AR v2)
Track 6 accurately ripped (confidence 2) [B8B49F2E] (AR v2)
Track 7 accurately ripped (confidence 2) [E05101D8] (AR v2)
Track 8 accurately ripped (confidence 2) [0EB8B718] (AR v2)
Track 9 accurately ripped (confidence 2) [B6572522] (AR v2)
Track 10 accurately ripped (confidence 2) [08C5F04B] (AR v2)
Track 11 accurately ripped (confidence 2) [C38405F6] (AR v2)
Track 12 accurately ripped (confidence 2) [C95E381B] (AR v2)
Track 13 accurately ripped (confidence 2) [53DFCF9A] (AR v2)

All tracks accurately ripped

End of status report

==== Log checksum D3FEF92A79FC76C288806EC1EBE07CAFDF5864B29DF32938748CA6A9052B5861 ====

[CUETools log; Date: 24.03.2020 12:40:54; Version: 2.1.4]
[CTDB TOCID: uGxlP4.c6N1aVKFNWrMNxhOns4g-] found.
Track | CTDB Status
1 | (33/33) Accurately ripped
2 | (33/33) Accurately ripped
3 | (33/33) Accurately ripped
4 | (33/33) Accurately ripped
5 | (33/33) Accurately ripped
6 | (30/33) Accurately ripped
7 | (33/33) Accurately ripped
8 | (33/33) Accurately ripped
9 | (33/33) Accurately ripped
10 | (33/33) Accurately ripped
11 | (33/33) Accurately ripped
12 | (30/33) Accurately ripped
13 | (29/33) Accurately ripped
[AccurateRip ID: 001a8da7-0109ad6e-bc0d040d] found.
Track [ CRC | V2 ] Status
01 [7c1e4e39|75933739] (04+10/21) Accurately ripped
02 [58fb75b7|f834a45d] (04+10/21) Accurately ripped
03 [b4ce7052|f23a4829] (04+10/21) Accurately ripped
04 [c9491e3f|bf68b96e] (04+10/21) Accurately ripped
05 [973eb418|2430d43e] (04+10/21) Accurately ripped
06 [42386fa6|b8b49f2e] (04+10/21) Accurately ripped
07 [2694d7ed|e05101d8] (04+10/21) Accurately ripped
08 [90542292|0eb8b718] (04+10/21) Accurately ripped
09 [d46a18c0|b6572522] (04+10/21) Accurately ripped
10 [5fc5169c|08c5f04b] (04+10/21) Accurately ripped
11 [6e7e0f7f|c38405f6] (04+10/21) Accurately ripped
12 [781d60c4|c95e381b] (04+10/21) Accurately ripped
13 [4abbf83c|53dfcf9a] (03+10/20) Accurately ripped
Offsetted by -114:
01 [335baf10] (00/21) No match (V2 was not tested)
02 [74ec3018] (00/21) No match (V2 was not tested)
03 [00e78ad9] (00/21) No match (V2 was not tested)
04 [c82de248] (00/21) No match (V2 was not tested)
05 [c9359dfb] (00/21) No match (V2 was not tested)
06 [dff883ca] (00/21) No match (V2 was not tested)
07 [a65e8a25] (00/21) No match (V2 was not tested)
08 [94277aac] (00/21) No match (V2 was not tested)
09 [8f2bd04f] (00/21) No match (V2 was not tested)
10 [51fbf780] (00/21) No match (V2 was not tested)
11 [483ba5e6] (00/21) No match (V2 was not tested)
12 [15220096] (00/21) No match (V2 was not tested)
13 [cafcf8d9] (00/20) No match (V2 was not tested)
Offsetted by -36:
01 [1d48934b] (00/21) No match (V2 was not tested)
02 [1171e466] (00/21) No match (V2 was not tested)
03 [998f2d61] (00/21) No match (V2 was not tested)
04 [a06b03dc] (00/21) No match (V2 was not tested)
05 [7236d54d] (00/21) No match (V2 was not tested)
06 [b7679e6e] (00/21) No match (V2 was not tested)
07 [5c68bf5d] (00/21) No match (V2 was not tested)
08 [e260fb06] (00/21) No match (V2 was not tested)
09 [04215fe2] (00/21) No match (V2 was not tested)
10 [53196bbb] (00/21) No match (V2 was not tested)
11 [d0a946e9] (00/21) No match (V2 was not tested)
12 [23afea9d] (00/21) No match (V2 was not tested)
13 [4188d4cd] (00/20) No match (V2 was not tested)
Offsetted by 6:
01 [ad7e3b5c] (00/21) No match (V2 was not tested)
02 [9e32317b] (00/21) No match
03 [6d408874] (00/21) No match
04 [90cb0107] (00/21) No match
05 [f2888142] (00/21) No match
06 [0405e7da] (00/21) No match
07 [4846dc05] (00/21) No match
08 [82a753d4] (00/21) No match
09 [77d046d8] (00/21) No match
10 [0de71add] (00/21) No match
11 [e261f966] (00/21) No match
12 [d63f40f4] (00/21) No match
13 [383b92cb] (00/20) No match

Track Peak [ CRC32 ] [W/O NULL] [ LOG ]
– 100,0 [345E3EBD] [74284604] CRC32
01 95,5 [B6B46B50] [839E2559]
02 99,8 [52281B5F] [BE79B9EC]
03 100,0 [CA8EE003] [03467EDF]
04 99,7 [D6D87CAA] [19B16AE3]
05 96,6 [21862883] [30617AF8]
06 96,6 [C7BB41A0] [EB0B90DB]
07 96,6 [BC24322A] [D903693A]
08 96,6 [63A6FB56] [444AB038]
09 96,6 [A018D33A] [4FD151B4]
10 98,6 [7861EF48] [1DD8F03F]
11 96,3 [88C8CB07] [E050B122]
12 96,6 [1EBE7AB5] [6D9BDFBE]
13 98,7 [B79C53EC] [C08FF187]

Stick Men - 4 Studio Albums (2010-2013)

Stick Men - Absalom (2011)
EAC Rip | FLAC (image+.cue+log) - 210 MB | MP3 CBR 320 kbps (LAME 3.93) - 73 MB | Covers - 9 MB
Genre: Progressive Rock | RAR 3% Rec. | Label: Stick Men Records

Tracklist:
01. Absalom
02. Smudge
03. Big Dog
04. Crack In The Sky
05. Times Insane Ashes
06. Pomegranate

Total time: 31:02

Exact Audio Copy V1.0 beta 3 from 29. August 2011

EAC extraction logfile from 9. December 2011, 12:23

Stick Men / Absalom

Used drive : PLEXTOR CD-R PX-240A Adapter: 0 ID: 0

Read mode : Secure
Utilize accurate stream : Yes
Defeat audio cache : Yes
Make use of C2 pointers : No

Read offset correction : 6
Overread into Lead-In and Lead-Out : No
Fill up missing offset samples with silence : Yes
Delete leading and trailing silent blocks : No
Null samples used in CRC calculations : Yes
Used interface : Installed external ASPI interface

Used output format : Internal WAV Routines
Sample format : 44.100 Hz; 16 Bit; Stereo


TOC of the extracted CD

Track | Start | Length | Start sector | End sector
––––––––––––––––––––––––––––-
1 | 0:00.00 | 5:20.52 | 0 | 24051
2 | 5:20.52 | 5:15.74 | 24052 | 47750
3 | 10:36.51 | 4:44.22 | 47751 | 69072
4 | 15:20.73 | 6:06.29 | 69073 | 96551
5 | 21:27.27 | 3:50.40 | 96552 | 113841
6 | 25:17.67 | 5:44.33 | 113842 | 139674


Range status and errors

Selected range

Filename Z:\data\mp3\Seeding Archive\Stick Men\2011-Absalom\Absalom.wav

Peak level 98.7 %
Extraction speed 2.4 X
Range quality 100.0 %
Test CRC 89DFE1B9
Copy CRC 89DFE1B9
Copy OK

No errors occurred


AccurateRip summary

Track 1 not present in database
Track 2 not present in database
Track 3 not present in database
Track 4 not present in database
Track 5 not present in database
Track 6 not present in database

None of the tracks are present in the AccurateRip database

End of status report

==== Log checksum AF0F8F2519BBB11FEF32B2400B0D8CE28A3712A930403A19EB8B50EF9E2AEBC7 ====

[CUETools log; Date: 24.03.2020 12:37:57; Version: 2.1.4]
[CTDB TOCID: sOvY.DzHhLQRQvoYVr4I9p9AxOE-] found.
Track | CTDB Status
1 | (28/29) Accurately ripped
2 | (28/29) Accurately ripped
3 | (28/29) Accurately ripped
4 | (28/29) Accurately ripped
5 | (28/29) Accurately ripped
6 | (28/29) Accurately ripped
[AccurateRip ID: 00077dc1-0027d7f3-4b074606] found.
Track [ CRC | V2 ] Status
01 [a14461c1|19d81472] (00+07/13) Accurately ripped
02 [9a310a1c|a22f603f] (00+07/13) Accurately ripped
03 [992d5bdc|8087c10a] (00+07/13) Accurately ripped
04 [4870ff9d|368f8996] (00+07/13) Accurately ripped
05 [ce0ad121|786639bc] (00+07/13) Accurately ripped
06 [a0174fe7|915325c6] (00+07/13) Accurately ripped
Offsetted by 90:
01 [f5ee0d59] (00/13) No match (V2 was not tested)
02 [68ac5692] (00/13) No match (V2 was not tested)
03 [ea6b4f24] (00/13) No match (V2 was not tested)
04 [a0f232db] (00/13) No match (V2 was not tested)
05 [6fb36197] (00/13) No match (V2 was not tested)
06 [10812fdb] (00/13) No match (V2 was not tested)

Track Peak [ CRC32 ] [W/O NULL] [ LOG ]
– 98,7 [89DFE1B9] [643500BE] CRC32
01 96,2 [B692608E] [0AC3220F]
02 96,2 [E9D0276E] [8DC6E6CA]
03 96,2 [87551CFB] [2445D3E0]
04 96,2 [572675EE] [C19FBFBB]
05 96,2 [B881B152] [AF703FB3]
06 98,7 [88378CD4] [9708618C]

Stick Men - 4 Studio Albums (2010-2013)

Stick Men - Open (2012)
EAC Rip | FLAC (image+.cue+log) - 301 MB | MP3 CBR 320 kbps (LAME 3.93) - 139 MB | Covers - 54 MB
Genre: Progressive Rock | RAR 3% Rec. | Label: Stick Men Records

Tracklist:
01. Amino 21
02. Open, Pt. 1 - Plunge
03. Alabaster
04. Open, Pt. 2 - Plow
05. Cyber Shards
06. Open Pt. 3 - Truncheon
07. Glass Heart (for Renée)
08. Time Capsule

Total time: 59:12

Exact Audio Copy V1.0 beta 3 from 29. August 2011

EAC extraction logfile from 4. March 2013, 23:05

Stick Men / Open

Used drive : PLEXTOR CD-R PX-240A Adapter: 1 ID: 0

Read mode : Secure
Utilize accurate stream : Yes
Defeat audio cache : Yes
Make use of C2 pointers : No

Read offset correction : 6
Overread into Lead-In and Lead-Out : No
Fill up missing offset samples with silence : Yes
Delete leading and trailing silent blocks : No
Null samples used in CRC calculations : Yes
Used interface : Installed external ASPI interface

Used output format : Internal WAV Routines
Sample format : 44.100 Hz; 16 Bit; Stereo


TOC of the extracted CD

Track | Start | Length | Start sector | End sector
––––––––––––––––––––––––––––-
1 | 0:00.00 | 5:57.01 | 0 | 26775
2 | 5:57.01 | 2:18.39 | 26776 | 37164
3 | 8:15.40 | 12:05.01 | 37165 | 91540
4 | 20:20.41 | 4:42.04 | 91541 | 112694
5 | 25:02.45 | 12:33.35 | 112695 | 169204
6 | 37:36.05 | 4:13.66 | 169205 | 188245
7 | 41:49.71 | 7:28.10 | 188246 | 221855
8 | 49:18.06 | 9:54.19 | 221856 | 266424


Range status and errors

Selected range

Filename P:\Seeding Archive\Stick Men\New Folder\Open.wav

Peak level 100.0 %
Extraction speed 9.1 X
Range quality 100.0 %
Test CRC 5E234DFE
Copy CRC 5E234DFE
Copy OK

No errors occurred


AccurateRip summary

Track 1 accurately ripped (confidence 1) [0ABF64A8] (AR v1)
Track 2 accurately ripped (confidence 1) [4168A60F] (AR v1)
Track 3 accurately ripped (confidence 1) [45CBF595] (AR v1)
Track 4 accurately ripped (confidence 1) [24FB2479] (AR v1)
Track 5 accurately ripped (confidence 1) [491A2719] (AR v1)
Track 6 accurately ripped (confidence 1) [A000C388] (AR v1)
Track 7 accurately ripped (confidence 1) [EFDA9D6A] (AR v1)
Track 8 accurately ripped (confidence 1) [A316F90F] (AR v1)

All tracks accurately ripped

End of status report

==== Log checksum 25679085C471656FE5F950E098CCCCDC828AE877F60B0362E9AD2CC2F6FEDF2D ====

[CUETools log; Date: 24.03.2020 12:38:46; Version: 2.1.4]
[CTDB TOCID: tgtV9Yb_BzUawEqLlY_xpNDL7k4-] found.
Track | CTDB Status
1 | (24/26) Accurately ripped
2 | (25/26) Accurately ripped
3 | (25/26) Accurately ripped
4 | (25/26) Accurately ripped
5 | (25/26) Accurately ripped
6 | (25/26) Accurately ripped
7 | (25/26) Accurately ripped
8 | (25/26) Accurately ripped
[AccurateRip ID: 0010ff35-0073f8b8-630de008] found.
Track [ CRC | V2 ] Status
01 [0abf64a8|63b51826] (00+13/13) Accurately ripped
02 [4168a60f|420f7edd] (00+13/13) Accurately ripped
03 [45cbf595|483189bd] (00+13/13) Accurately ripped
04 [24fb2479|af3db80a] (00+13/13) Accurately ripped
05 [491a2719|2e7c72d0] (00+13/13) Accurately ripped
06 [a000c388|56794f3d] (00+13/13) Accurately ripped
07 [efda9d6a|9ef457ab] (00+13/13) Accurately ripped
08 [a316f90f|f7598272] (00+13/13) Accurately ripped

Track Peak [ CRC32 ] [W/O NULL] [ LOG ]
– 100,0 [5E234DFE] [7ADF7CB1] CRC32
01 97,7 [B3AA62BA] [722DD7F2]
02 97,7 [87FD0CF8] [039619E7]
03 97,7 [4E0740C4] [28D833D0]
04 97,7 [D7624825] [066B6A9C]
05 97,7 [11A65144] [DAD08ADB]
06 97,7 [D6921B72] [9379FBE1]
07 97,7 [5D7926B4] [DCE839C9]
08 100,0 [4B366F1E] [165DEC89]

Stick Men - 4 Studio Albums (2010-2013)

Stick Men - Deep (2013)
EAC Rip | FLAC (image+.cue+log) - 371 MB | MP3 CBR 320 kbps (LAME 3.93) - 127 MB | Covers - 29 MB
Genre: Progressive Rock | RAR 3% Rec. | Label: Stick Men Records (SMN1311)

Tracklist:
01. Nude Ascending Staircase
02. On/Off
03. Cusp
04. Hide The Trees
05. Crack In The Sky
06. Horatio
07. Concussion
08. Sepia
09. Whale Watch

Total time: 54:16

Exact Audio Copy V1.0 beta 3 from 29. August 2011

EAC extraction logfile from 4. March 2013, 23:05

Stick Men / Deep

Used drive : LITE-ON DVDRW LH-20A1L Adapter: 4 ID: 0

Read mode : Secure
Utilize accurate stream : Yes
Defeat audio cache : Yes
Make use of C2 pointers : No

Read offset correction : 6
Overread into Lead-In and Lead-Out : No
Fill up missing offset samples with silence : Yes
Delete leading and trailing silent blocks : No
Null samples used in CRC calculations : Yes
Used interface : Installed external ASPI interface

Used output format : Internal WAV Routines
Sample format : 44.100 Hz; 16 Bit; Stereo


TOC of the extracted CD

Track | Start | Length | Start sector | End sector
––––––––––––––––––––––––––––-
1 | 0:00.00 | 5:05.11 | 0 | 22885
2 | 5:05.11 | 3:58.00 | 22886 | 40735
3 | 9:03.11 | 4:53.39 | 40736 | 62749
4 | 13:56.50 | 6:38.32 | 62750 | 92631
5 | 20:35.07 | 5:46.33 | 92632 | 118614
6 | 26:21.40 | 4:13.37 | 118615 | 137626
7 | 30:35.02 | 4:27.05 | 137627 | 157656
8 | 35:02.07 | 8:55.25 | 157657 | 197806
9 | 43:57.32 | 10:18.36 | 197807 | 244192


Range status and errors

Selected range

Filename P:\Seeding Archive\Stick Men\2013-Deep\Deep.wav

Peak level 98.8 %
Extraction speed 8.5 X
Range quality 99.9 %
Test CRC 045698ED
Copy CRC 045698ED
Copy OK

No errors occurred


AccurateRip summary

Track 1 not present in database
Track 2 not present in database
Track 3 not present in database
Track 4 not present in database
Track 5 not present in database
Track 6 not present in database
Track 7 not present in database
Track 8 not present in database
Track 9 not present in database

None of the tracks are present in the AccurateRip database

End of status report

==== Log checksum 3932288B4FEECD85971AC0F8C8E6624839D772C8C0E89E43D9D07852493C3E45 ====

[CUETools log; Date: 24.03.2020 12:40:09; Version: 2.1.4]
[CTDB TOCID: sJFCEPllWqZyvNY3NLyIGuSpJ1A-] found.
Track | CTDB Status
1 | (45/45) Accurately ripped
2 | (45/45) Accurately ripped
3 | (45/45) Accurately ripped
4 | (45/45) Accurately ripped
5 | (45/45) Accurately ripped
6 | (45/45) Accurately ripped
7 | (45/45) Accurately ripped
8 | (45/45) Accurately ripped
9 | (44/45) Accurately ripped
[AccurateRip ID: 001066d7-007ab0dd-790cb709] found.
Track [ CRC | V2 ] Status
01 [e4b3bf39|679134cd] (02+23/25) Accurately ripped
02 [03081cef|c23bf515] (02+23/25) Accurately ripped
03 [c29b8684|9dcc4f2c] (02+23/25) Accurately ripped
04 [6eaf5854|a0458c27] (02+23/25) Accurately ripped
05 [0f59bc9f|42d0f6a1] (02+23/25) Accurately ripped
06 [45fddd8a|38aca752] (02+23/25) Accurately ripped
07 [0fcae83a|4c943db1] (02+23/25) Accurately ripped
08 [88ee8349|6eaba76b] (02+23/25) Accurately ripped
09 [f3e331c3|2b60062b] (02+23/25) Accurately ripped

Track Peak [ CRC32 ] [W/O NULL] [ LOG ]
– 98,8 [045698ED] [D699D291] CRC32
01 98,4 [6398B51E] [BECD52D0]
02 98,7 [7790984A] [FF97FD08]
03 98,8 [16B6CC2F] [942A4C38]
04 97,6 [685E235C] [D69E187C]
05 98,0 [41CBC53F] [F39E3EC7]
06 98,8 [5EBDBE22] [C009AEEF]
07 98,1 [4C87895C] [549C96B6]
08 97,5 [F5897E87] [FD053E2D]
09 98,7 [F7611AE4] [C4F61299]

Thanks to hexonut

See also:
Stick Men - Prog Noir (2016)
Stick Men featuring Mel Collins - Roppongi (2017)